Registrate para interactuar con EmaMedina

El jinete [2017] [Latino] [HDRip] [Un link]
Peliculas audio Latino

El jinete [2017] [Latino] [HDRip] [Un link]

El jinete [2017] [Latino] [HDRip] [Un link]

Brady, que fue una de las estrellas del rodeo y un talentoso entrenador de caballos, sufre un accidente que le incapacita para volver a montar. Cuando vuelve a casa se da cuenta de que lo único que quiere hacer es montar a caballo y participar en rodeos, lo que le frustra bastante. En un intento por retomar el control de su vida, Brady emprende un viaje en busca de una nueva identidad y del significado de lo que es ser un hombre en el corazón de América.

El jinete [2017] [Latino] [HDRip] [Un link]

Para poder ver los links necesitas estar Registrado .
O.. ya tienes cuenta? Logueate!


El jinete [2017] [Latino] [HDRip] [Un link]

Título original: The Rider
Año: 2017
Duración: 104 min.
País: Estados Unidos Estados Unidos
Dirección: Chloé Zhao
Guion: Chloé Zhao
Música: Nathan Halpern
Fotografía: Joshua James Richards
Reparto: Brady Jandreau, Tim Jandreau, Lilly Jandreau, Cat Clifford, Terri Dawn Pourier, Lane Scott, Tanner Langdeau, James Calhoon, Derrick Janis
Productora: Caviar Films / Highwayman Films
Género: Drama | Caballos. Cine independiente USA

El jinete [2017] [Latino] [HDRip] [Un link]

General
Complete name               : El jinete [HDRip][Latino].avi
Format                      : AVI
Format/Info                 : Audio Video Interleave
File size                   : 1.58 GiB
Duration                    : 1 h 38 min
Overall bit rate            : 2 285 kb/s
Writing application         : VirtualDubMod 1.5.10.2 (build 2540/release)
Writing library             : VirtualDubMod build 2540/release

Video
ID                          : 0
Format                      : AVC
Format/Info                 : Advanced Video Codec
Format profile              : [email protected]
Format settings             : CABAC / 2 Ref Frames
Format settings, CABAC      : Yes
Format settings, RefFrames  : 2 frames
Codec ID                    : H264
Duration                    : 1 h 38 min
Bit rate                    : 2 083 kb/s
Width                       : 720 pixels
Height                      : 302 pixels
Display aspect ratio        : 2.40:1
Frame rate                  : 25.000 FPS
Color space                 : YUV
Chroma subsampling          : 4:2:0
Bit depth                   : 8 bits
Scan type                   : Progressive
Bits/(Pixel*Frame)          : 0.383
Stream size                 : 1.44 GiB (91%)
Writing library             : x264 core
Color range                 : Limited
Color primaries             : BT.601 NTSC
Transfer characteristics    : BT.709
Matrix coefficients         : BT.601

Audio
ID                          : 1
Format                      : AC-3
Format/Info                 : Audio Coding 3
Format settings, Endianness : Big
Codec ID                    : 2000
Duration                    : 1 h 38 min
Bit rate mode               : Constant
Bit rate                    : 192 kb/s
Channel(s)                  : 2 channels
Channel positions           : Front: L R
Sampling rate               : 48.0 kHz
Frame rate                  : 31.250 FPS (1536 SPF)
Bit depth                   : 16 bits
Compression mode            : Lossy
Stream size                 : 136 MiB (8%)
Alignment                   : Split accross interleaves
Interleave, duration        : 40  ms (1.00 video frame)
Interleave, preload duratio : 500  ms
Service kind                : Complete Main

El jinete [2017] [Latino] [HDRip] [Un link]

El jinete [2017] [Latino] [HDRip] [Un link]

El jinete [2017] [Latino] [HDRip] [Un link]

Un link sin comprimir

Para poder ver los links necesitas estar Registrado .
O.. ya tienes cuenta? Logueate!


Enlaces intercambiables

Para poder ver los links necesitas estar Registrado .
O.. ya tienes cuenta? Logueate!

Para poder ver los links necesitas estar Registrado .
O.. ya tienes cuenta? Logueate!


Si lo que encontraste en este Post te sirvió , no te olvides de agradecérselo al Uploader ;
Tu comentario y agradecimiento es su única recompensa y estimulo para seguir compartiendo.
Estadísticas
Creado 03.09.2018 a las 00:24 hs
Categoría Peliculas audio Latino
  • 0
    Medallas
  • 0
    Favoritos
  • 79
    Visitas
  • 3/10
    LPDLW score
  • 3
    Votantes
  • 30
    Puntos
  • 0
    Seguidores
  • 0
    Recomendado
Comentarios
0
Cargando comentarios espera un momento...

Para poder comentar necesitas ser un usuario registrado , ¡ Registrarme Ahora !. O.. ya tienes usuario? Logueate!
Creado por    EmaMedina
Ver perfil de EmaMedina EmaMedina
Hombre New Full User  Mensaje
264 14 1
Medallas ganadas por este Post
No tiene medallas
Punteadores
Tags
Posts relacionados
Mas Post de     EmaMedina
Términos y condiciones
Privacidad
Report - DMCA
Contacto
LoPeorDeLaWeb  © 2014 - 2018
Carga   3.804    Mls  
Basado en  PHPost 
Diseño de Kmario19
Adaptado por  jor51