Scooby-Doo, Dónde Estás! (1969) [1080p x265] [Trial] ZP
Series Animadas

Scooby-Doo, Dónde Estás! (1969) [1080p x265] [Trial] ZP
Scooby-Doo, Dónde Estás! (1969) [1080p x265] [Trial] ZP


Scooby-Doo, Dónde Estás! (1969) [1080p x265] [Trial] ZP
Scooby-Doo, Dónde Estás! (1969) [1080p x265] [Trial] ZP

Scooby-Doo ¿Dónde estás? (presentada en el doblaje como Misterio a la orden) es una serie animada de terror y misterio realizada por la compañía estadounidense Hanna-Barbera Productions. Fue creada por los escritores Joe Ruby y Ken Spears, por el diseñador de personajes Iwao Takamoto, producida y dirigida por William Hanna y Joseph Barbera.

Es la primera versión animada de Scooby-Doo también conocida como Misterio a la Orden, cuenta las aventuras de un grupo de jóvenes y su perro Scooby, los cuales resuelven misterios paranormales, en donde al final el fantasma resulta ser un persona normal.


GÉNERO:
Serie de TV. Animación. Fantástico. Terror. Comedia. Aventuras. Intriga | Perros/Lobos

Scooby-Doo, Dónde Estás! (1969) [1080p x265] [Trial] ZP

Scooby-Doo, Dónde Estás! (1969) [1080p x265] [Trial] ZP


Scooby-Doo, Dónde Estás! (1969) [1080p x265] [Trial] ZP




Complete name: ¡SDDE! (1969) - S01E01 - La leyenda del Caballero Negro [1080p x265] by_franckable.mkv
ID: 1
Format: Matroska
File size: 984 MiB
Duration: 22 min 15 s
Overall bit rate: 6 180 kb/s
Bit rate: 5 522 kb/s
Width: 1 920 pixels
Height: 1 080 pixels
Frame rate: 23.976 (24000/1001) FPS
Writing library: x265

Audio #1
ID : 2
Format: AAC LC
Bit rate: 244 kb/s
Channel(s): 2 channels
Duration: 22 min 15 s
Frame rate: 46.875 FPS (1024 SPF)
Stream size: 38.9 MiB (4%)
Title: Audio Latino 2.0

Audio #2
ID : 3
Format: AC-3
Bit rate: 192 kb/s
Channel(s): 2 channels
Duration: 22 min 15 s
Frame rate: 31.250 FPS (1536 SPF)
Stream size: 30.6 MiB (3%)
Title: Audio Ingles 2.0

Audio #3
ID : 4
Format: AC-3
Bit rate: 192 kb/s
Channel(s): 2 channels
Duration: 22 min 15 s
Frame rate: 31.250 FPS (1536 SPF)
Stream size: 30.6 MiB (3%)
Title: Audio Frances 2.0

Text #1
ID : 5
Format: PGS
Bit rate: 27.5 kb/s
Duration: 21 min 52 s
Count of elements: 472
Stream size: 4.30 MiB (0%)
Language: English

Menu
00:00:00.000 : en:Chapter 01
00:01:05.857 : en:Chapter 02
00:06:28.513 : en:Chapter 03
00:10:51.275 : en:Chapter 04
00:16:01.669 : en:Chapter 05



Scooby-Doo, Dónde Estás! (1969) [1080p x265] [Trial] ZP
Scooby-Doo, Dónde Estás! (1969) [1080p x265] [Trial] ZP

Temporada 1 [1080p x265 - Trial]










Scooby-Doo, Dónde Estás! (1969) [1080p x265] [Trial] ZP


Temporada 2 [1080p x265 - Trial]

Para poder ver los links necesitas estar Registrado .
O.. ya tienes cuenta? Logueate!
Scooby-Doo, Dónde Estás! (1969) [1080p x265] [Trial] ZP
Capitulos 1, 8 y 9, de la temporada 1. 

Estos episodios tienen una mejor sincronización del audio latino. Dejo los audios latinos finales sincronizados aparte; y los episodios mencionados con dichos audios incrustados. Disfrútenlos. Saludos.


Para poder ver los links necesitas estar Registrado .
O.. ya tienes cuenta? Logueate!
Scooby-Doo, Dónde Estás! (1969) [1080p x265] [Trial] ZP


Scooby-Doo, Dónde Estás! (1969) [1080p x265] [Trial] ZP
Descárgate 
Un Cachorro Llamado Scooby-Doo (1998) [1080p x265]



Scooby-Doo, Dónde Estás! (1969) [1080p x265] [Trial] ZP

Scooby-Doo, Dónde Estás! (1969) [1080p x265] [Trial] ZP

Si lo que encontraste en este Post te sirvió , no te olvides de agradecérselo al Uploader ;
Tu comentario y agradecimiento es su única recompensa y estimulo para seguir compartiendo.
Estadísticas
Creado 30.10.2020 a las 01:35 hs
Categoría Series Animadas
  • 1
    Medallas
  • 0
    Favoritos
  • 1451
    Visitas
  • 8/10
    LPDLW score
  • 13
    Votantes
  • 78
    Puntos
  • 0
    Seguidores
  • 0
    Recomendado
Comentarios
21
Cargando comentarios espera un momento...

Para poder comentar necesitas ser un usuario registrado , ¡ Registrarme Ahora !. O.. ya tienes usuario? Logueate!
Creado por    franckable
Ver perfil de franckable franckable
Hombre Master  Mensaje
3,435 77 157
Medallas ganadas por este Post
1
Punteadores
Tags
Posts relacionados
Mas Post de     franckable
Términos y condiciones
Privacidad
Report - DMCA
Contacto
LoPeorDeLaWeb  © 2014 - 2022
Carga   0.564    Mls  
Basado en  PHPost 
Diseño de Kmario19
Adaptado por  jor51 
LoPeorDeLaWeb utiliza cookies. Lea nuestra Política de Privacidad para obtener más información. Para eliminar este mensaje, haga clic en el siguiente botón: Acepto el uso de cookies