Samurai Jack (2001) - Season 5 - [1080p x265] [Dual ZP]
Series Animadas

Samurai Jack (2001) - Season 5 - [1080p x265] [Dual ZP]


Samurai Jack (2001)


Samurai Jack (2001) - Season 5 - [1080p x265] [Dual ZP]
Samurai Jack (2001) - Season 5 - [1080p x265] [Dual ZP]

Serie de TV (2001-2017). 62 episodios. Samurai Jack es una serie animada creada por el animador Genndy Tartakovsky y emitida por Cartoon Network entre los años 2001 y 2004. Se destaca por su animación altamente detallada y su apariencia cinemática, lo cual es inusual en varias series animadas. Además dentro de la serie se presentan situaciones que ocasionan que la trama principal se desvíe a escenas o de tensión o de humor, o episodios que carecen en su mayoría de diálogo. Las situaciones que ocurren en cada episodio tienen a ser desde épicas y oscuras hasta ser divertidas. La mayoría de las escenas donde hay presente un combate hacen memoria de las películas de samurais, la diferencia radica en que la serie evitó ser censurada por violencia debido a que los enemigos de Jack, que generalmente son robots o alienígenas, "sangran" aceite o sustancias viscosas.


Creador del programa:
Genndy Tartakovsky


GÉNERO:
Serie de TV. Animación. Acción. Aventuras | Samuráis. Robots. Extraterrestres

Samurai Jack (2001) - Season 5 - [1080p x265] [Dual ZP]
Samurai Jack (2001) - Season 5 - [1080p x265] [Dual ZP]

Samurai Jack (2001) - Season 5 - [1080p x265] [Dual ZP]
+ Samirai Jack Extras  +

Los extras solo están en ingles sin subtítulos

Samurai Jack - Extras - 6 Storyboards

Samurai Jack - Extras - Lost Artwork

Samurai Jack - Extras - The Making of Samurai Jack

Samurai Jack - Extras - The Martial Arts of Samurai Jack

Samurai Jack - Extras - The Pitch

+ Samirai Jack Extras  +

Samurai Jack (2001) - Season 5 - [1080p x265] [Dual ZP]



Complete name: Samurai Jack (2001) - S05E01 - XCII [1080p x265].mkv
ID: 1
Format: HEVC
File size: 226 MiB
Duration: 22 min 37 s
Overall bit rate: 1 395 kb/s
Bit rate: 1 187 kb/s
Width: 1 920 pixels
Height: 1 080 pixels
Frame rate: 23.976 (24000/1001) FPS
Writing library: x265

Audio #1
ID : 2
Format: AAC LC
Bit rate: 192 kb/s
Channel(s): 6 channels
Duration: 22 min 37 s
Frame rate: 46.875 FPS (1024 SPF)
Stream size: 31.1 MiB (14%)
Title: Audio Ingles 5.1

Text #1
ID : 3
Format: UTF-8
Bit rate: 24 b/s
Duration: 18 min 27 s
Count of elements: 133
Stream size: 3.29 KiB (0%)
Language: Spanish

Text #2
ID : 4
Format: PGS
Bit rate: 23.0 kb/s
Duration: 22 min 24 s
Count of elements: 458
Stream size: 3.69 MiB (2%)
Language: English

Menu
00:00:00.000 : en:Chapter 01
00:04:14.170 : en:Chapter 02
00:10:50.816 : en:Chapter 03
00:22:05.949 : en:Chapter 04



Samurai Jack (2001) - Season 5 - [1080p x265] [Dual ZP]
Samurai Jack (2001) - Season 5 - [1080p x265] [Dual ZP]

Samurai Jack - Season 5 [1080p x265]



Para poder ver los links necesitas estar Registrado .
O.. ya tienes cuenta? Logueate!
Samurai Jack (2001) - Season 5 - [1080p x265] [Dual ZP]
+ Samirai Jack Extras  +

Solo esta en ingles sin subtitulos

Para poder ver los links necesitas estar Registrado .
O.. ya tienes cuenta? Logueate!
Samurai Jack (2001) - Season 5 - [1080p x265] [Dual ZP]


Samurai Jack (2001) - Season 5 - [1080p x265] [Dual ZP]

Descárgate las demás temporadas.


Samurai Jack (2001) - Season 5 - [1080p x265] [Dual ZP]

Samurai Jack (2001) - Season 5 - [1080p x265] [Dual ZP]

Samurai Jack (2001) - Season 5 - [1080p x265] [Dual ZP]

Samurai Jack (2001) - Season 5 - [1080p x265] [Dual ZP]




Samurai Jack (2001) - Season 5 - [1080p x265] [Dual ZP]

Si lo que encontraste en este Post te sirvió , no te olvides de agradecérselo al Uploader ;
Tu comentario y agradecimiento es su única recompensa y estimulo para seguir compartiendo.
Estadísticas
Creado 09.10.2020 a las 15:06 hs
Categoría Series Animadas
  • 0
    Medallas
  • 0
    Favoritos
  • 131
    Visitas
  • 2.5/10
    LPDLW score
  • 5
    Votantes
  • 25
    Puntos
  • 0
    Seguidores
  • 0
    Recomendado
Comentarios
6
Cargando comentarios espera un momento...

Para poder comentar necesitas ser un usuario registrado , ¡ Registrarme Ahora !. O.. ya tienes usuario? Logueate!
Creado por    franckable
Ver perfil de franckable franckable
Hombre Master  Mensaje
2,947 78 136
Medallas ganadas por este Post
No tiene medallas
Punteadores
Tags
Posts relacionados
Mas Post de     franckable
Términos y condiciones
Privacidad
Report - DMCA
Contacto
LoPeorDeLaWeb  © 2014 - 2021
Carga   0.420    Mls  
Basado en  PHPost 
Diseño de Kmario19
Adaptado por  jor51 
LoPeorDeLaWeb utiliza cookies. Lea nuestra Política de Privacidad para obtener más información. Para eliminar este mensaje, haga clic en el siguiente botón: Acepto el uso de cookies