The Shivering Truth (2018) 1080p MG-ZP
Series Animadas

The Shivering Truth (2018) 1080p MG-ZP




The Shivering Truth (2018)

ADULT SWIM






The Shivering Truth (2018) 1080p MG-ZP






The Shivering Truth (2018) 1080p MG-ZP




The Shivering Truth es una serie de televisión estadounidense animada en stop motion, comedia de antología elaborada delicadamente y oscuramente surreal (...) de daymares dolorosamente desenfrenadas, que rebosan de la lógica de los sueños. Una serie de parábolas emocionales poco vinculadas, que tratan sobre historias dentro de cuentos salidos de las cavernas más profundas del inconsciente, que se convirtieron en animaciones stop motion amigables que te dejan sin aliento- en otras palabras, es la verdad. Se estrenó el 9 de diciembre de 2018 en Adult Swim; el episodio piloto se publicó el 22 de mayo del mismo año en el sitio web de Adult Swim.


Creador del programa: Vernon Chatman



Titulo: The Shivering Truth (2018)
Temporada: 1
Capítulos: 6 /+ Piloto
Formato: MKV
Idioma: Ingles 5.1

Subtitulos: Espanol Latino
Resolución: 1080p AMZN WEB-DL x265
Peso: 200 mb x/capitulo
Peso Total: 1.31 Gb





contraseña: by_franckable



The Shivering Truth (2018) 1080p MG-ZP




Complete name: The Shivering Truth (2018) - S01E01 - The Nurple Rainbow
(1080p AMZN WEB-DL x265).mkv
Video
ID: 1
File size: 194 MiB
Duration: 11 min 17 s
Overall bit rate: 2 396 kb/s
Bit rate: 1 753 kb/s
Width: 1 920 pixels
Height: 1 080 pixels

Audio #1
ID : 2
Format: E-AC-3
Bit rate: 640 kb/s
Channel(s): 6 channels
Stream size: 51.7 MiB (27%)
Title: Inglés

Text #1
ID : 3
Format: UTF-8
Bit rate: 86 b/s
Duration: 10 min 45 s
Count of elements: 180
Stream size: 6.80 KiB (0%)
Language: Spanish
Default: Yes


Text #2
ID : 4
Format: UTF-8
Bit rate: 80 b/s
Duration: 11 min 14 s
Count of elements: 218
Stream size: 6.62 KiB (0%)
Language: English
Default: No





The Shivering Truth (2018) 1080p MG-ZP



The Shivering Truth (2018) 1080p MG-ZP

The Shivering Truth (2018) 1080p MG-ZP

The Shivering Truth (2018) 1080p MG-ZP

The Shivering Truth (2018) 1080p MG-ZP





The Shivering Truth (2018) 1080p MG-ZP




The Shivering Truth (2018) 1080p MG-ZP





Para poder ver los links necesitas estar Registrado .
O.. ya tienes cuenta? Logueate!



The Shivering Truth (2018) 1080p MG-ZP


Para poder ver los links necesitas estar Registrado .
O.. ya tienes cuenta? Logueate!



The Shivering Truth (2018) 1080p MG-ZP


Para poder ver los links necesitas estar Registrado .
O.. ya tienes cuenta? Logueate!





contraseña: by_franckable




The Shivering Truth (2018) 1080p MG-ZP


Nota: Serie no apta para menores de edad.



[size=]The Shivering Truth (2018) 1080p MG-ZP
[/size]

The Shivering Truth (2018) 1080p MG-ZP


Si lo que encontraste en este Post te sirvió , no te olvides de agradecérselo al Uploader ;
Tu comentario y agradecimiento es su única recompensa y estimulo para seguir compartiendo.
Estadísticas
Creado 21.05.2020 a las 02:26 hs
Categoría Series Animadas
  • 0
    Medallas
  • 2
    Favoritos
  • 54
    Visitas
  • 3/10
    LPDLW score
  • 4
    Votantes
  • 30
    Puntos
  • 0
    Seguidores
  • 0
    Recomendado
Comentarios
5
Cargando comentarios espera un momento...

Para poder comentar necesitas ser un usuario registrado , ¡ Registrarme Ahora !. O.. ya tienes usuario? Logueate!
Creado por    franckable
Ver perfil de franckable franckable
Hombre Aprendiz  Mensaje
99 3 19
Medallas ganadas por este Post
No tiene medallas
Punteadores
Tags
Posts relacionados
Mas Post de     franckable
Términos y condiciones
Privacidad
Report - DMCA
Contacto
LoPeorDeLaWeb  © 2014 - 2020
Carga   0.491    Mls  
Basado en  PHPost 
Diseño de Kmario19
Adaptado por  jor51 
LoPeorDeLaWeb utiliza cookies. Lea nuestra Política de Privacidad para obtener más información. Para eliminar este mensaje, haga clic en el siguiente botón: Acepto el uso de cookies