Final Space - Temporada 1 & 2 - 720p/1080p MG-ZP
Series Animadas

Final Space - Temporada 1 & 2 - 720p/1080p MG-ZP




FINAL SPACE (2018)

ADULT SWIM






Final Space - Temporada 1 & 2 - 720p/1080p MG-ZP






Final Space - Temporada 1 & 2 - 720p/1080p MG-ZP




Un astronauta llamado Gary y su compinche destructor de planetas llamado Mooncake, se embarcan en viajes a través del espacio para descubrir el misterio de dónde termina el universo y si realmente tiene fin. 

Creado por: Olan Rogers



Titulo: Final Space
Temporadas: 1 y 2
Capítulos:  10 y 13 "respectivamente"
Formato: MKV
Idioma 1: Ingles 5.1

Idioma 2: Latino 5.1
Subtitulos: Espanol Latino y Forzados
Resolución: 720p S01 / 1080p S02
Peso: 300 a 700 mb x/capitulo
Peso Total: 2,52 Gb / 5.73 Gb



contraseña: by_franckable





Final Space - Temporada 1 & 2 - 720p/1080p MG-ZP





Temporada 1

Complete name: Final Space - S01E01 - Chapter One.mkv
Video
ID: 1
File size: 261 MiB
Duration: 21 min 51 s
Overall bit rate: 1 670 kb/s
Bit rate: 900 kb/s
Width: 1 280 pixels
Height: 720 pixels

Audio #1
ID : 2
Format: AC-3
Bit rate: 384 kb/s
Channel(s): 6 channels
Stream size: 60.0 MiB (23%)
Title: Inglés

Audio #2
ID : 3
Format: AC-3
Bit rate: 384 kb/s
Channel(s): 6 channels
Stream size: 60.0 MiB (23%)
Title: Latino


Temporada 2

Complete name: Final Space - S02E01 -  The Toro Regatta.mkv
Video
ID: 1
File size: 405 MiB
Duration: 22 min 9 s
Overall bit rate: 2 559 kb/s
Bit rate: 1 789 kb/s
Width: 1 920 pixels
Height: 1 080 pixels

Audio #1
ID : 2
Format: AC-3
Bit rate: 384 kb/s
Channel(s): 6 channels
Stream size: 60.8 MiB (15%)
Title: Inglés

Audio #2
ID : 3
Format: AC-3
Bit rate: 384 kb/s
Channel(s): 6 channels
Stream size: 60.8 MiB (15%)
Title: Latino





Final Space - Temporada 1 & 2 - 720p/1080p MG-ZP





Final Space - Temporada 1 & 2 - 720p/1080p MG-ZP

Final Space - Temporada 1 & 2 - 720p/1080p MG-ZP

Final Space - Temporada 1 & 2 - 720p/1080p MG-ZP

Final Space - Temporada 1 & 2 - 720p/1080p MG-ZP

Final Space - Temporada 1 & 2 - 720p/1080p MG-ZP

Final Space - Temporada 1 & 2 - 720p/1080p MG-ZP






Final Space - Temporada 1 & 2 - 720p/1080p MG-ZP




Final Space - Temporada 1 & 2 - 720p/1080p MG-ZP





Temporada 1





Para poder ver los links necesitas estar Registrado .
O.. ya tienes cuenta? Logueate!





Temporada 2















Final Space - Temporada 1 & 2 - 720p/1080p MG-ZP


Temporada 1





Para poder ver los links necesitas estar Registrado .
O.. ya tienes cuenta? Logueate!





Temporada 2



Para poder ver los links necesitas estar Registrado .
O.. ya tienes cuenta? Logueate!






Final Space - Temporada 1 & 2 - 720p/1080p MG-ZP



Temporada 1















Temporada 2




Para poder ver los links necesitas estar Registrado .
O.. ya tienes cuenta? Logueate!





contraseña: by_franckable



Final Space - Temporada 1 & 2 - 720p/1080p MG-ZP

Final Space - Temporada 1 & 2 - 720p/1080p MG-ZP

Final Space - Temporada 1 & 2 - 720p/1080p MG-ZP

Si lo que encontraste en este Post te sirvió , no te olvides de agradecérselo al Uploader ;
Tu comentario y agradecimiento es su única recompensa y estimulo para seguir compartiendo.
Estadísticas
Creado 21.05.2020 a las 02:00 hs
Categoría Series Animadas
  • 0
    Medallas
  • 0
    Favoritos
  • 138
    Visitas
  • 2.5/10
    LPDLW score
  • 3
    Votantes
  • 22
    Puntos
  • 0
    Seguidores
  • 0
    Recomendado
Comentarios
5
Cargando comentarios espera un momento...

Para poder comentar necesitas ser un usuario registrado , ¡ Registrarme Ahora !. O.. ya tienes usuario? Logueate!
Creado por    franckable
Ver perfil de franckable franckable
Hombre Avanzado  Mensaje
1,175 32 55
Medallas ganadas por este Post
No tiene medallas
Punteadores
Tags
Posts relacionados
Mas Post de     franckable
Términos y condiciones
Privacidad
Report - DMCA
Contacto
LoPeorDeLaWeb  © 2014 - 2020
Carga   0.542    Mls  
Basado en  PHPost 
Diseño de Kmario19
Adaptado por  jor51 
LoPeorDeLaWeb utiliza cookies. Lea nuestra Política de Privacidad para obtener más información. Para eliminar este mensaje, haga clic en el siguiente botón: Acepto el uso de cookies