Midway 2019 2160p UHD 10bit SDR BluRay Latino RUEDAS
Post con Links Caidos

Midway 2019 2160p UHD 10bit SDR BluRay Latino RUEDAS


Midway 2019 2160p 10bit SDR BluRay Latino



Midway 2019 2160p UHD 10bit SDR BluRay Latino RUEDAS


Midway 2019 2160p UHD 10bit SDR BluRay Latino RUEDAS


Año 1942, Segunda Guerra Mundial. Después del devastador ataque sorpresa que destruyó Pearl Harbor, la Armada Imperial Japonesa se prepara para un nuevo ataque. Pero el Almirante Nimitz (Woody Harrelson) y Dick Best (Ed Skrein), el mejor piloto de la armada estadounidense, preparan un contraataque al imponente ejército japonés. Así, Best encabezará un ataque masivo que hará que Japón se dé cuenta de su error. Una decisión que cambió el curso de la historia para siempre. Mientras estos dos titánicos enemigos emprenden una letal batalla para cambiar el rumbo de la guerra, todas las miradas se vuelcan hacia la remota isla de Midway, donde una serie de contundentes ataques aéreos y marítimos pondrán a prueba la potencia y la fortaleza de ambas naciones.


Midway 2019 2160p UHD 10bit SDR BluRay Latino RUEDAS


Format : Matroska

Format version : Version 4

File size : 5.91 GiB

Duration : 2 h 18 min



Video

ID : 1

Format : HEVC

Format/Info : High Efficiency Video Coding

Format profile : Main [email protected]@Main

Codec ID : V_MPEGH/ISO/HEVC

Duration : 2 h 18 min

Bit rate : 6 000 kb/s

Width : 3 840 pixels

Height : 1 600 pixels

Display aspect ratio : 2.40:1

Frame rate mode : Constant

Frame rate : 23.976 (24000/1001) FPS

Color space : YUV

Chroma subsampling : 4:2:0

Bit depth : 10 bits



Audio

ID : 2

Format : AAC LC

Format/Info : Advanced Audio Codec Low Complexity

Codec ID : A_AAC-2

Duration : 2 h 18 min

Bit rate : 112 kb/s

Channel(s) : 2 channels

Channel layout : L R

Sampling rate : 48.0 kHz

Frame rate : 46.875 FPS (1024 SPF)

Compression mode : Lossy

Delay relative to video : 145 ms

Stream size : 111 MiB (2%)

Title : Latino

Language : Spanish

Default : Yes

Forced : No



Text

ID : 3

Format : UTF-8

Codec ID : S_TEXT/UTF8

Codec ID/Info : UTF-8 Plain Text

Duration : 2 h 8 min

Bit rate : 3 b/s

Count of elements : 77

Stream size : 3.38 KiB (0%)

Default : Yes

Forced : Yes



Midway 2019 2160p UHD 10bit SDR BluRay Latino RUEDAS
Midway 2019 2160p UHD 10bit SDR BluRay Latino RUEDAS

Midway 2019 2160p UHD 10bit SDR BluRay Latino RUEDAS

Midway 2019 2160p UHD 10bit SDR BluRay Latino RUEDAS

Midway 2019 2160p UHD 10bit SDR BluRay Latino RUEDAS



Midway 2019 2160p UHD 10bit SDR BluRay Latino RUEDAS

solo4klatino


Midway 2019 2160p UHD 10bit SDR BluRay Latino RUEDAS

Si lo que encontraste en este Post te sirvió , no te olvides de agradecérselo al Uploader ;
Tu comentario y agradecimiento es su única recompensa y estimulo para seguir compartiendo.
Estadísticas
Creado 14.02.2020 a las 22:57 hs
Categoría Post con Links Caidos
  • 0
    Medallas
  • 0
    Favoritos
  • 133
    Visitas
  • 7/10
    LPDLW score
  • 7
    Votantes
  • 68
    Puntos
  • 0
    Seguidores
  • 1
    Recomendado
Comentarios
8
Cargando comentarios espera un momento...

Para poder comentar necesitas ser un usuario registrado , ¡ Registrarme Ahora !. O.. ya tienes usuario? Logueate!
Creado por    RUEDAS
Ver perfil de RUEDAS RUEDAS
Hombre Aprendiz  Mensaje
174 3 36
Medallas ganadas por este Post
No tiene medallas
Punteadores
Tags
Posts relacionados
Mas Post de     RUEDAS
Términos y condiciones
Privacidad
Report - DMCA
Contacto
LoPeorDeLaWeb  © 2014 - 2020
Carga   0.394    Mls  
Basado en  PHPost 
Diseño de Kmario19
Adaptado por  jor51 
LoPeorDeLaWeb utiliza cookies. Lea nuestra Política de Privacidad para obtener más información. Para eliminar este mensaje, haga clic en el siguiente botón: Acepto el uso de cookies