Predator 2015 Dark Ages MKV English + Subt Latino
Peliculas Subtituladas

Predator 2015 Dark Ages MKV English + Subt Latino


Predator 2015 Dark Ages MKV English + Subt Latino



Predator 2015 Dark Ages MKV English + Subt Latino


Predator 2015 Dark Ages MKV English + Subt Latino

Predator 2015 Dark Ages MKV English + Subt Latino


Sinopsis:
Un grupo de caballeros templarios se cruza con un Depredador. Ahora, tendrá que darle caza para sobrevivir.

Título original: Predator: Dark Ages
Año: 2015
Duración: 25 min.
País: Reino Unido
Dirección: James Bushe
Guion: James Bushe
Fotografía: Simon Rowling
Reparto: Adrian Bouchet, Amed Hashimi, Sabine Crossen, Ben Loyd-Holmes, Jon Campling, Joe Egan, Philip Lane, David Goddard, Bryan Hands, George Newton
Productora: Big Sis Productions, Dark Age Productions, Fascination Pictures
Género: Acción. Ciencia ficción | Edad Media. Extraterrestres. Fan Film. Cortometraje
Grupos: Depredador


Predator 2015 Dark Ages MKV English + Subt Latino


Este es Mi Post #08

Datos Generales del Video
Titulo: Predator: Dark Ages
Año: 2015
Extensión: MKV
Dimensiones: 1920x1080
Audio: English
Canales: Stereo
Subtítulos: Sí. Latino & English
Duración: 00:27:00 Minutos
Peso: 548 MB

Video
Format : AVC
Codec ID : V_MPEG4/ISO/AVC
Duration : 27 min 17 s
Bit rate : 2 675 kb/s
Width : 1 920 pixels
Height : 1 080 pixels
Display aspect ratio : 16:9
Frame rate mode : Constant
Frame rate : 24.000 FPS
Bit depth : 8 bits
Scan type : Progressive
Bits/(Pixel*Frame) : 0.054
Stream size : 522 MiB (95%)

Audio
Format : AAC LC
Codec ID : A_AAC-2
Duration : 27 min 17 s
Bit rate : 132 kb/s
Channel(s) : 2 channels
Channel layout : L R
Sampling rate : 44.1 kHz
Frame rate : 43.066 FPS (1024 SPF)
Compression mode : Lossy
Stream size : 25.4 MiB (5%)
Title : English
Language : English
Default : Yes

Text #1
Format : UTF-8
Duration : 24 min 9 s
Bit rate : 31 b/s
Count of elements : 189
Stream size : 5.59 KiB (0%)
Title : Latino
Language : Spanish
Default : Yes
Forced : No

Text #2
Format : UTF-8
Duration : 27 min 12 s
Bit rate : 25 b/s
Count of elements : 318
Stream size : 5.09 KiB (0%)
Title : English
Language : English
Default : No
Forced : No




Predator 2015 Dark Ages MKV English + Subt Latino
Predator 2015 Dark Ages MKV English + Subt Latino

Predator 2015 Dark Ages MKV English + Subt Latino



Para poder ver los links necesitas estar Registrado .
O.. ya tienes cuenta? Logueate!






Predator 2015 Dark Ages MKV English + Subt Latino

Sin Contraseña


Predator 2015 Dark Ages MKV English + Subt Latino

Si lo que encontraste en este Post te sirvió , no te olvides de agradecérselo al Uploader ;
Tu comentario y agradecimiento es su única recompensa y estimulo para seguir compartiendo.
Estadísticas
Creado 06.08.2022 a las 02:38 hs
Categoría Peliculas Subtituladas
  • 0
    Medallas
  • 0
    Favoritos
  • 454
    Visitas

  • LPDLW score
  • 1
    Votantes
  • 5
    Puntos
  • 0
    Seguidores
  • 0
    Recomendado
Comentarios
26
Cargando comentarios espera un momento...

Para poder comentar necesitas ser un usuario registrado , ¡ Registrarme Ahora !. O.. ya tienes usuario? Logueate!
Creado por    XRICARDO
Ver perfil de XRICARDO XRICARDO
Hombre New Full User  Mensaje
284 7 33
Medallas ganadas por este Post
No tiene medallas
Punteadores
Tags
Posts relacionados
Mas Post de     XRICARDO
Términos y condiciones
Privacidad
Report - DMCA
Contacto
LoPeorDeLaWeb  © 2014 - 2024
Carga   0.685    Mls  
Basado en  PHPost 
Diseño de Kmario19
Adaptado por  jor51 
LoPeorDeLaWeb utiliza cookies. Lea nuestra Política de Privacidad para obtener más información. Para eliminar este mensaje, haga clic en el siguiente botón: Acepto el uso de cookies