Guardianes de Altamar (2006) [1080p Dual] ZP
Peliculas con audio Dual

Guardianes de Altamar (2006) [1080p Dual] ZP
Guardianes de Altamar (2006) [1080p Dual] ZP


Guardianes de Altamar (2006) [1080p Dual] ZP
Guardianes de Altamar (2006) [1080p Dual] ZP

Tras perder a su compañero y a otros miembros de su equipo durante un accidentado rescate en alta mar, el subteniente Ben Randall (Kevin Costner), un legendario miembro de la Guardia Costera norteamericana, es enviado como instructor a una academia de élite de rescatadores de la Guardia Costera. Al principio chocará con Jake Fischer (Ashton Kutcher), un joven díscolo y presuntuoso destinado a ser el mejor del curso.


DIRECCIÓN:
Andrew Davis


REPARTO:
Kevin Costner, Ashton Kutcher, Sela Ward, Melissa Sagemiller, Clancy Brown, Omari Hardwick, Bonnie Bramlett, Neal McDonough, John Heard, Brian Geraghty, Alex Daniels, Shelby Fenner, Adam Pena.


GÉNERO:
Aventuras. Acción. Drama | Aventuras marinas. Ejército. Enseñanza

Guardianes de Altamar (2006) [1080p Dual] ZP

Guardianes de Altamar (2006) [1080p Dual] ZP

Guardianes de Altamar (2006) [1080p Dual] ZP



Complete name: Guardianes de Altamar (2006) 1080p.mkv
ID: 1
Format: Matroska
File size: 3.05 GiB
Duration: 2 h 19 min
Overall bit rate: 3 143 kb/s
Bit rate: 2 500 kb/s
Width: 1 920 pixels
Height: 1 036 pixels
Frame rate: 23.976 (24000/1001) FPS
Writing library: x264

Audio #1
ID : 2
Format: AC-3
Bit rate: 320 kb/s
Channel(s): 6 channels
Duration: 2 h 19 min
Frame rate: 28.711 FPS (1536 SPF)
Stream size: 318 MiB (10%)
Title: Audio Ingles 5.1

Audio #2
ID : 3
Format: AC-3
Bit rate: 320 kb/s
Channel(s): 6 channels
Duration: 2 h 19 min
Frame rate: 28.711 FPS (1536 SPF)
Stream size: 318 MiB (10%)
Title: Audio Latino 5.1

Text #1
ID : 4
Format: UTF-8
Bit rate: 63 b/s
Duration: 2 h 11 min
Count of elements: 1733
Stream size: 61.6 KiB (0%)
Language: Spanish

Text #2
ID : 5
Format: UTF-8
Bit rate: 64 b/s
Duration: 2 h 11 min
Count of elements: 1736
Stream size: 61.8 KiB (0%)
Language: English


Guardianes de Altamar (2006) [1080p Dual] ZP


Guardianes de Altamar (2006) [1080p Dual] ZP
Guardianes de Altamar (2006) [1080p Dual] ZP

Para poder ver los links necesitas estar Registrado .
O.. ya tienes cuenta? Logueate!
Guardianes de Altamar (2006) [1080p Dual] ZP


Guardianes de Altamar (2006) [1080p Dual] ZP
Guardianes de Altamar (2006) [1080p Dual] ZP

Si lo que encontraste en este Post te sirvió , no te olvides de agradecérselo al Uploader ;
Tu comentario y agradecimiento es su única recompensa y estimulo para seguir compartiendo.
Estadísticas
Creado 28.10.2020 a las 14:50 hs
Categoría Peliculas con audio Dual
  • 1
    Medallas
  • 0
    Favoritos
  • 2456
    Visitas
  • 5/10
    LPDLW score
  • 6
    Votantes
  • 46
    Puntos
  • 1
    Seguidores
  • 0
    Recomendado
Comentarios
29
Cargando comentarios espera un momento...

Para poder comentar necesitas ser un usuario registrado , ¡ Registrarme Ahora !. O.. ya tienes usuario? Logueate!
Creado por    franckable
Ver perfil de franckable franckable
Hombre Master  Mensaje
3,460 75 157
Medallas ganadas por este Post
1
Punteadores
Tags
Posts relacionados
Mas Post de     franckable
Términos y condiciones
Privacidad
Report - DMCA
Contacto
LoPeorDeLaWeb  © 2014 - 2024
Carga   0.411    Mls  
Basado en  PHPost 
Diseño de Kmario19
Adaptado por  jor51 
LoPeorDeLaWeb utiliza cookies. Lea nuestra Política de Privacidad para obtener más información. Para eliminar este mensaje, haga clic en el siguiente botón: Acepto el uso de cookies