21 Bridges (2019) [1080p Trial] ZP
Peliculas con audio Dual

21 Bridges (2019) [1080p Trial] ZP
21 Bridges (2019) [1080p Trial] ZP



21 Bridges (2019) [1080p Trial] ZP
21 Bridges (2019) [1080p Trial] ZP

Andre Davis (Chadwick Boseman) es un policía de Nueva York al que le encargan la investigación del asesinato de varios policías. Durante la búsqueda contrarreloj de los responsables, en la que se cierran por primera vez en la historia de Manhattan todos los puentes que acceden a ella, el detective descubre una conspiración en la que tendrá que discernir entre aquellos a los que caza y los sospechosos que están tratando de cazarle a él.

DIRECCIÓN:
Brian Kirk


REPARTO:
Chadwick Boseman, Sienna Miller, Taylor Kitsch, J.K. Simmons, Stephan James, Keith David, Victoria Cartagena, Gary Carr, Shayna Ryan, Toby Hemingway, Dale Pavinski, Louis Cancelmi, Christian Isaiah.


GÉNERO:
Thriller. Drama. Acción | Crimen. Policíaco

21 Bridges (2019) [1080p Trial] ZP

21 Bridges (2019) [1080p Trial] ZP

21 Bridges (2019) [1080p Trial] ZP



Complete name: 21 Bridges (2019) 1080p Trial.mkv
ID: 1
Format: Matroska
File size: 2.55 GiB
Duration: 1 h 39 min
Overall bit rate: 3 650 kb/s
Bit rate: 2 500 kb/s
Width: 1 920 pixels
Height: 808 pixels
Frame rate: 23.976 (23976/1000) FPS
Writing library: x264

Audio #1
ID : 2
Format: AC-3
Bit rate: 448 kb/s
Channel(s): 6 channels
Duration: 1 h 39 min
Frame rate: 31.250 FPS (1536 SPF)
Stream size: 320 MiB (12%)
Title: Audio Ingles 5.1

Audio #2
ID : 3
Format: AC-3
Bit rate: 256 kb/s
Channel(s): 2 channels
Duration: 1 h 39 min
Frame rate: 31.250 FPS (1536 SPF)
Stream size: 183 MiB (7%)
Title: Audio Latino 2.0

Audio #3
ID : 4
Format: AC-3
Bit rate: 448 kb/s
Channel(s): 6 channels
Duration: 1 h 39 min
Frame rate: 31.250 FPS (1536 SPF)
Stream size: 320 MiB (12%)
Title: Audio Italiano 5.1

Text #1
ID : 5
Format: UTF-8
Bit rate: 47 b/s
Duration: 1 h 31 min
Count of elements: 1108
Stream size: 31.6 KiB (0%)
Language: Spanish

Text #2
ID : 6
Format: UTF-8
Bit rate: 0 b/s
Duration: 22 min 9 s
Count of elements: 2
Stream size: 60.0 Bytes (0%)
Language: Spanish Sub Forzados

Text #3
ID : 7
Format: UTF-8
Bit rate: 56 b/s
Duration: 1 h 30 min
Count of elements: 1249
Stream size: 37.6 KiB (0%)
Language: English

Menu
00:00:00.000 : :1
00:09:07.000 : :2
00:21:25.000 : :3
00:32:19.000 : :4
00:43:16.000 : :5
00:52:19.000 : :6
01:01:41.000 : :7
01:10:32.000 : :8
01:18:38.000 : :9
01:32:04.000 : :10



21 Bridges (2019) [1080p Trial] ZP
21 Bridges (2019) [1080p Trial] ZP

Para poder ver los links necesitas estar Registrado .
O.. ya tienes cuenta? Logueate!
21 Bridges (2019) [1080p Trial] ZP


21 Bridges (2019) [1080p Trial] ZP
21 Bridges (2019) [1080p Trial] ZP


Si lo que encontraste en este Post te sirvió , no te olvides de agradecérselo al Uploader ;
Tu comentario y agradecimiento es su única recompensa y estimulo para seguir compartiendo.
Estadísticas
Creado 26.10.2020 a las 20:15 hs
Categoría Peliculas con audio Dual
  • 0
    Medallas
  • 0
    Favoritos
  • 343
    Visitas
  • 4/10
    LPDLW score
  • 5
    Votantes
  • 40
    Puntos
  • 0
    Seguidores
  • 0
    Recomendado
Comentarios
3
Cargando comentarios espera un momento...

Para poder comentar necesitas ser un usuario registrado , ¡ Registrarme Ahora !. O.. ya tienes usuario? Logueate!
Creado por    franckable
Ver perfil de franckable franckable
Hombre Master  Mensaje
3,435 77 157
Medallas ganadas por este Post
No tiene medallas
Punteadores
Tags
Posts relacionados
Mas Post de     franckable
Términos y condiciones
Privacidad
Report - DMCA
Contacto
LoPeorDeLaWeb  © 2014 - 2022
Carga   0.573    Mls  
Basado en  PHPost 
Diseño de Kmario19
Adaptado por  jor51 
LoPeorDeLaWeb utiliza cookies. Lea nuestra Política de Privacidad para obtener más información. Para eliminar este mensaje, haga clic en el siguiente botón: Acepto el uso de cookies