El Quinto Elemento (1997) [1080p] [Trial] [ZP]
Peliculas con audio Dual

El Quinto Elemento (1997) [1080p] [Trial] [ZP]


El Quinto Elemento (1997)


El Quinto Elemento (1997) [1080p] [Trial] [ZP]
El Quinto Elemento (1997) [1080p] [Trial] [ZP]

Cada 5.000 años se abre una puerta entre dos dimensiones. En una dimensión existe el Universo y la vida. En la otra dimensión existe un elemento que no está hecho ni de tierra, ni de fuego, ni de aire, ni de agua, sino que es una anti-energía, la anti-vida: es el quinto elemento.


DIRECCIÓN: Luc Besson


REPARTO
Bruce Willis, Gary Oldman, Milla Jovovich, Luke Perry, Ian Holm, Chris Tucker, Brion James, Maïwenn, Tommy 'Tiny' Lister, Hon Ping Tang, Lee Evans, Charlie Creed-Miles, Tricky, John Neville, John Bluthal.

El Quinto Elemento (1997) [1080p] [Trial] [ZP]
El Quinto Elemento (1997) [1080p] [Trial] [ZP]
El Quinto Elemento (1997) [1080p] [Trial] [ZP]



Complete name: El Quinto Elemento (1997) 1080p Trial.mkv
Video
ID: 1
File size: 3.18 GiB
Duration: 2 h 5 min
Overall bit rate: 3 622 kb/s
Bit rate: 2 500 kb/s
Width: 1 920 pixels
Height: 808 pixels
Writing library: x264

Audio #1
ID : 2
Format: AAC LC
Duration: 2 h 5 min
Bit rate: 224 kb/s
Channel(s): 6 channels
Stream size: 202 MiB (6%)
Title: Audio Ingles 5.1

Audio #2
ID : 3
Format: AC-3
Duration: 2 h 5 min
Bit rate: 256 kb/s
Channel(s): 2 channels
Stream size: 230 MiB (7%)
Title: Audio Latino Original 2.0

Audio #3
ID : 4
Format: AC-3
Duration: 2 h 5 min
Bit rate: 640 kb/s
Channel(s): 6 channels
Stream size: 576 MiB (18%)
Title: Audio Latino Redoblaje 5.1

Text #1
ID : 5
Format: UTF-8
Bit rate: 50 b/s
Duration: 1 h 58 min
Count of elements: 1586
Stream size: 43.7 KiB (0%)
Language: Spanish

Text #2
ID : 6
Format: UTF-8
Bit rate: 61 b/s
Duration: 2 h 4 min
Count of elements: 1766
Stream size: 56.0 KiB (0%)
Language: English



El Quinto Elemento (1997) [1080p] [Trial] [ZP]

El Quinto Elemento (1997) [1080p] [Trial] [ZP]

Para poder ver los links necesitas estar Registrado .
O.. ya tienes cuenta? Logueate!
El Quinto Elemento (1997) [1080p] [Trial] [ZP]


El Quinto Elemento (1997) [1080p] [Trial] [ZP]
El Quinto Elemento (1997) [1080p] [Trial] [ZP]

Si lo que encontraste en este Post te sirvió , no te olvides de agradecérselo al Uploader ;
Tu comentario y agradecimiento es su única recompensa y estimulo para seguir compartiendo.
Estadísticas
Creado 25.09.2020 a las 11:39 hs
Categoría Peliculas con audio Dual
  • 0
    Medallas
  • 0
    Favoritos
  • 152
    Visitas
  • 6/10
    LPDLW score
  • 7
    Votantes
  • 60
    Puntos
  • 0
    Seguidores
  • 0
    Recomendado
Comentarios
20
Cargando comentarios espera un momento...

Para poder comentar necesitas ser un usuario registrado , ¡ Registrarme Ahora !. O.. ya tienes usuario? Logueate!
Creado por    franckable
Ver perfil de franckable franckable
Hombre Master  Mensaje
2,947 78 136
Medallas ganadas por este Post
No tiene medallas
Punteadores
Tags
Posts relacionados
Mas Post de     franckable
Términos y condiciones
Privacidad
Report - DMCA
Contacto
LoPeorDeLaWeb  © 2014 - 2021
Carga   0.486    Mls  
Basado en  PHPost 
Diseño de Kmario19
Adaptado por  jor51 
LoPeorDeLaWeb utiliza cookies. Lea nuestra Política de Privacidad para obtener más información. Para eliminar este mensaje, haga clic en el siguiente botón: Acepto el uso de cookies