Spaceballs (1987) [1080p] [Trial] Audio Latino Original
Peliculas con audio Dual

Que tal camaradas, en esta ocasión les comparto el el primer doblaje latino (original), de Spaceballs - Un Loco suelto en el espacio.

Si descargaron la película que postee anteriormente, solo descarguen el audio latino original por separado. Y lo anexan con mkvtoolnix (mkvmergue).

Sino descarguen la película con los tres audios (latino original, redoblaje e ingles).
Espero la disfruten saludos.

Spaceballs (1987) [1080p] [Trial] Audio Latino Original
- Primer Doblaje Latino 1080p Sample -


Spaceballs (1987) [1080p] [Trial] Audio Latino Original

Spaceballs (1987) [1080p] [Trial] Audio Latino Original


Spaceballs (1987)


Spaceballs (1987) [1080p] [Trial] Audio Latino Original
Spaceballs (1987) [1080p] [Trial] Audio Latino Original

El planeta Spaceball intenta "robar" la atmósfera del vecino Druidia secuestrando y pidiendo rescate por la princesa Vespa. El inventor de la trama es Dark Helmet -Rick Moranis-, pero se las tendrá que ver con Lone Starr -Bill Pullman-.


DIRECCIÓN: Mel Brooks


REPARTO
Mel Brooks, John Candy, Rick Moranis, Bill Pullman, Daphne Zuniga, Dick Van Patten, George Wyner, Michael Winslow, Joan Rivers, John Hurt, Lorene Yarnell Jansson, Sal Viscuso, Ronny Graham, Jim J. Bullock, Leslie Bevis, Jim Jackman, Mike Pniewski, Sandy Helberg, Stephen Tobolowsky

Spaceballs (1987) [1080p] [Trial] Audio Latino Original
Spaceballs (1987) [1080p] [Trial] Audio Latino Original
Spaceballs (1987) [1080p] [Trial] Audio Latino Original



Complete name: Spaceballs (1987) 1080p Trial.mkv
Video
ID: 1
File size: 3.40 GiB
Duration: 1 h 36 min
Overall bit rate: 5 038 kb/s
Bit rate: 4 000 kb/s
Width: 1 920 pixels
Height: 1 080 pixels
Writing library: x264

Audio #1
ID : 2
Format: AC-3
Bit rate: 448 kb/s
Channel(s): 6 channels
Frame rate: 31.250 FPS (1536 SPF)
Stream size: 308 MiB (9%)
Title: Audio English 5.1

Audio #2
ID : 3
Format: AAC LC
Bit rate: 196 kb/s
Channel(s): 2 channels
Frame rate: 46.875 FPS (1024 SPF)
Stream size: 135 MiB (4%)
Title: Audio Latino Original 2.0

Audio #3
ID : 4
Format: AC-3
Bit rate: 448 kb/s
Channel(s): 6 channels
Frame rate: 31.250 FPS (1536 SPF)
Stream size: 308 MiB (9%)
Title: Audio Latino ReDoblaje 5.1

Text #1
ID : 5
Format: UTF-8
Bit rate: 62 b/s
Duration: 1 h 30 min
Count of elements: 1139
Stream size: 41.5 KiB (0%)
Language: Spanish

Text #2
ID : 6
Format: UTF-8
Bit rate: 61 b/s
Duration: 1 h 36 min
Count of elements: 1570
Stream size: 43.2 KiB (0%)
Language: English

Menu
00:00:00.000 : en:Chapter 1
00:01:52.821 : en:Chapter 2
00:07:13.015 : en:Chapter 3
00:09:37.910 : en:Chapter 4
00:13:45.658 : en:Chapter 5
00:16:58.517 : en:Chapter 6
00:18:24.311 : en:Chapter 7
00:19:49.938 : en:Chapter 8
00:22:40.192 : en:Chapter 9
00:26:49.608 : en:Chapter 10
00:30:16.689 : en:Chapter 11
00:32:54.722 : en:Chapter 12
00:34:55.301 : en:Chapter 13
00:37:13.564 : en:Chapter 14
00:40:50.906 : en:Chapter 15
00:43:46.457 : en:Chapter 16
00:46:59.441 : en:Chapter 17
00:48:04.047 : en:Chapter 18
00:49:56.910 : en:Chapter 19
00:52:34.818 : en:Chapter 20
00:53:33.293 : en:Chapter 21
00:55:00.088 : en:Chapter 22
00:58:24.125 : en:Chapter 23
01:03:52.995 : en:Chapter 24
01:07:13.320 : en:Chapter 25
01:16:30.210 : en:Chapter 27
01:20:07.052 : en:Chapter 28
01:21:45.358 : en:Chapter 29
01:24:29.314 : en:Chapter 30
01:28:05.530 : en:Chapter 31
01:30:40.393 : en:Chapter 32



Spaceballs (1987) [1080p] [Trial] Audio Latino Original

Spaceballs (1987) [1080p] [Trial] Audio Latino Original

Spaceballs 1080p Trial [3.40 GiB]


Para poder ver los links necesitas estar Registrado .
O.. ya tienes cuenta? Logueate!
Spaceballs (1987) [1080p] [Trial] Audio Latino Original
Spaceballs - Solo Audio Latino Original -


Para poder ver los links necesitas estar Registrado .
O.. ya tienes cuenta? Logueate!

Spaceballs (1987) [1080p] [Trial] Audio Latino Original


Spaceballs (1987) [1080p] [Trial] Audio Latino Original
Spaceballs (1987) [1080p] [Trial] Audio Latino Original

Si lo que encontraste en este Post te sirvió , no te olvides de agradecérselo al Uploader ;
Tu comentario y agradecimiento es su única recompensa y estimulo para seguir compartiendo.
Estadísticas
Creado 22.09.2020 a las 11:17 hs
Categoría Peliculas con audio Dual
  • 0
    Medallas
  • 0
    Favoritos
  • 116
    Visitas
  • 8/10
    LPDLW score
  • 10
    Votantes
  • 77
    Puntos
  • 0
    Seguidores
  • 0
    Recomendado
Comentarios
10
Cargando comentarios espera un momento...

Para poder comentar necesitas ser un usuario registrado , ¡ Registrarme Ahora !. O.. ya tienes usuario? Logueate!
Creado por    franckable
Ver perfil de franckable franckable
Hombre Master  Mensaje
2,454 67 114
Medallas ganadas por este Post
No tiene medallas
Punteadores
Tags
Posts relacionados
Mas Post de     franckable
Términos y condiciones
Privacidad
Report - DMCA
Contacto
LoPeorDeLaWeb  © 2014 - 2020
Carga   0.342    Mls  
Basado en  PHPost 
Diseño de Kmario19
Adaptado por  jor51 
LoPeorDeLaWeb utiliza cookies. Lea nuestra Política de Privacidad para obtener más información. Para eliminar este mensaje, haga clic en el siguiente botón: Acepto el uso de cookies