El Mariachi - Trilogía (1992-2003) [1080p] [Dual] [ZP]
Peliculas con audio Dual

El Mariachi - Trilogía (1992-2003) [1080p] [Dual] [ZP]



El Mariachi (1992)


El Mariachi - Trilogía (1992-2003) [1080p] [Dual] [ZP]
El Mariachi - Trilogía (1992-2003) [1080p] [Dual] [ZP]

Un joven mariachi que se gana la vida actuando en diferentes lugares llega a un pueblo de la frontera mexicana al mismo tiempo que un peligroso matón, cuya misión es asesinar al amo del lugar.


REPARTO
Carlos Gallardo, Peter Marquardt, Consuelo Gómez, Jaime de Hoyos, Ramiro Gómez, Reinol Martinez, Manuel Acosta


GÉNERO
Acción | Venganza. Crimen. Serie B. Película de culto

El Mariachi - Trilogía (1992-2003) [1080p] [Dual] [ZP]
El Mariachi - Trilogía (1992-2003) [1080p] [Dual] [ZP]
El Mariachi - Trilogía (1992-2003) [1080p] [Dual] [ZP]



Complete name: El Mariachi (1992) 1080p x264.mkv
Video
ID: 1
Format: AVC
File size: 1.85 GiB
Duration: 1 h 21 min
Overall bit rate: 3 255 kb/s
Bit rate: 2 500 kb/s
Width: 1 920 pixels
Height: 1 040 pixels
Frame rate: 23.976 (23976/1000) FPS
Writing library: x264

Audio #1
ID : 2
Format: DTS
Bit rate: 755 kb/s
Channel(s): 5 channels
Duration: 1 h 21 min
Frame rate: 93.750 FPS (512 SPF)
Stream size: 440 MiB (23%)
Title: Audio Ingles 5.1 DTS

Text #1
ID : 3
Format: UTF-8
Bit rate: 21 b/s
Duration: 1 h 17 min
Count of elements: 366
Stream size: 12.5 KiB (0%)
Language: Spanish

Text #1
ID : 4
Format: UTF-8
Bit rate: 23 b/s
Duration: 1 h 15 min
Count of elements: 468
Stream size: 13.0 KiB (0%)
Language: English


El Mariachi - Trilogía (1992-2003) [1080p] [Dual] [ZP]

El Mariachi - Trilogía (1992-2003) [1080p] [Dual] [ZP]
El Mariachi - Trilogía (1992-2003) [1080p] [Dual] [ZP]


Desperado (1995)


El Mariachi - Trilogía (1992-2003) [1080p] [Dual] [ZP]
El Mariachi - Trilogía (1992-2003) [1080p] [Dual] [ZP]

El Mariachi, un misterioso guitarrista, vuelve para vengar la muerte de su amante y la mutilación de una de sus manos. Sin embargo, cometerá un nuevo error: relacionarse con Carolina, la dueña del café-librería de un pueblucho dominado por una banda de traficantes de drogas. Ella, al conocer al Mariachi, comprende que su destino va a a cambiar. Juntos desafiarán a la banda de Bucho a un duelo sangriento.


REPARTO
Antonio Banderas, Joaquim de Almeida, Salma Hayek, Danny Trejo, Tito Larriva, Steve Buscemi, Cheech Marin, Quentin Tarantino, Carlos Gallardo, Angela Lanza


GÉNERO
Acción | Venganza. Secuela

El Mariachi - Trilogía (1992-2003) [1080p] [Dual] [ZP]
El Mariachi - Trilogía (1992-2003) [1080p] [Dual] [ZP]
El Mariachi - Trilogía (1992-2003) [1080p] [Dual] [ZP]



Complete name: Desperado (1995) 1080p x264.mkv
Video
ID: 1
Format: AVC
File size: 2.56 GiB
Duration: 1 h 44 min
Overall bit rate: 3 508 kb/s
Bit rate: 2 500 kb/s
Width: 1 920 pixels
Height: 1 040 pixels
Frame rate: 23.976 (23976/1000) FPS
Writing library: x264

Audio #1
ID : 2
Format: DTS
Bit rate: 755 kb/s
Channel(s): 6 channels
Duration: 1 h 37 min
Frame rate: 93.750 FPS (512 SPF)
Stream size: 564 MiB (21%)
Title: Audio Ingles 5.1 DTS

Audio #2
ID : 3
Format: AAC LC
Bit rate: 254 kb/s
Channel(s): 2 channels
Duration: 1 h 37 min
Frame rate: 43.066 FPS (1024 SPF)
Stream size: 190 MiB (7%)
Title: Audio Latino 2.0

Text #1
ID : 4
Format: UTF-8
Bit rate: 32 b/s
Duration: 1 h 38 min
Count of elements: 854
Stream size: 23.7 KiB (0%)
Language: Spanish

Text #1
ID : 5
Format: UTF-8
Bit rate: 32 b/s
Duration: 1 h 38 min
Count of elements: 854
Stream size: 23.7 KiB (0%)
Language: Spanish

Text #1
ID : 6
Format: UTF-8
Bit rate: 34 b/s
Duration: 1 h 38 min
Count of elements: 954
Stream size: 24.5 KiB (0%)
Language: English


El Mariachi - Trilogía (1992-2003) [1080p] [Dual] [ZP]

El Mariachi - Trilogía (1992-2003) [1080p] [Dual] [ZP]
El Mariachi - Trilogía (1992-2003) [1080p] [Dual] [ZP]

Érase Una Vez en México (2003)


El Mariachi - Trilogía (1992-2003) [1080p] [Dual] [ZP]
El Mariachi - Trilogía (1992-2003) [1080p] [Dual] [ZP]

Sands (Johnny Depp), un peculiar agente de la CIA, ha sido destinado a México con la misión de mantener la estabilidad del país. Cuando se entera de que Barillo (Willem Dafoe) planea asesinar al presidente de México por medio del general Márquez (Gerardo Vigil), busca a "El Mariachi" (Antonio Banderas), un personaje legendario, que vive aislado y que tiene una cuenta pendiente con Márquez.


REPARTO
Antonio Banderas, Salma Hayek, Johnny Depp, Rubén Blades, Eva Mendes, Willem Dafoe, Mickey Rourke, Enrique Iglesias, Danny Trejo, Marco Leonardi, Cheech Marin, Gerardo Vigil, Pedro Armendáriz Jr., Julio Oscar Mechoso


GÉNERO
Acción. Western | Crimen

El Mariachi - Trilogía (1992-2003) [1080p] [Dual] [ZP]
El Mariachi - Trilogía (1992-2003) [1080p] [Dual] [ZP]
El Mariachi - Trilogía (1992-2003) [1080p] [Dual] [ZP]



Complete name: Érase Una Vez en México (2003) 1080p x264.mkv
Video
ID: 1
Format: AVC
File size: 2.77 GiB
Duration: 1 h 41 min
Overall bit rate: 3 896 kb/s
Bit rate: 2 500 kb/s
Width: 1 920 pixels
Height: 1 080 pixels
Frame rate: 23.976 (23976/1000) FPS
Writing library: x264

Audio #1
ID : 2
Format: DTS
Bit rate: 755 kb/s
Channel(s): 6 channels
Duration: 1 h 41 min
Frame rate: 93.750 FPS (512 SPF)
Stream size: 549 MiB (19%)
Title: Audio Ingles 5.1 DTS

Audio #2
ID : 3
Format: E-AC-3
Bit rate: 640 kb/s
Channel(s): 6 channels
Duration: 1 h 41 min
Frame rate: 31.250 FPS (1536 SPF)
Stream size: 465 MiB (16%)
Title: Audio Latino 5.1 DDP

Text #1
ID : 4
Format: UTF-8
Bit rate: 30 b/s
Duration: 1 h 33 min
Count of elements: 622
Stream size: 20.9 KiB (0%)
Language: Spanish

Text #2
ID : 5
Format: UTF-8
Bit rate: 29 b/s
Duration: 1 h 33 min
Count of elements: 672
Stream size: 20.0 KiB (0%)
Language: Spanish

Text #3
ID : 6
Format: UTF-8
Bit rate: 36 b/s
Duration: 1 h 34 min
Count of elements: 738
Stream size: 27.8 KiB (0%)
Language: English


El Mariachi - Trilogía (1992-2003) [1080p] [Dual] [ZP]

El Mariachi - Trilogía (1992-2003) [1080p] [Dual] [ZP]
El Mariachi - Trilogía (1992-2003) [1080p] [Dual] [ZP]

El Mariachi - Trilogía (1992-2003) [1080p] [Dual] [ZP]


El Mariachi (1992) 1080p


Para poder ver los links necesitas estar Registrado .
O.. ya tienes cuenta? Logueate!



Pass: by_franckable
El Mariachi - Trilogía (1992-2003) [1080p] [Dual] [ZP]
Desperado (1995) 1080p


Para poder ver los links necesitas estar Registrado .
O.. ya tienes cuenta? Logueate!



Pass: by_franckable
El Mariachi - Trilogía (1992-2003) [1080p] [Dual] [ZP]
Érase Una Vez en México (2003) 1080p


Para poder ver los links necesitas estar Registrado .
O.. ya tienes cuenta? Logueate!



Pass: by_franckable
El Mariachi - Trilogía (1992-2003) [1080p] [Dual] [ZP]



El Mariachi - Trilogía (1992-2003) [1080p] [Dual] [ZP]
El Mariachi - Trilogía (1992-2003) [1080p] [Dual] [ZP]

Si lo que encontraste en este Post te sirvió , no te olvides de agradecérselo al Uploader ;
Tu comentario y agradecimiento es su única recompensa y estimulo para seguir compartiendo.
Estadísticas
Creado 19.09.2020 a las 16:56 hs
Categoría Peliculas con audio Dual
  • 1
    Medallas
  • 3
    Favoritos
  • 1873
    Visitas
  • 4/10
    LPDLW score
  • 6
    Votantes
  • 40
    Puntos
  • 1
    Seguidores
  • 0
    Recomendado
Comentarios
25
Cargando comentarios espera un momento...

Para poder comentar necesitas ser un usuario registrado , ¡ Registrarme Ahora !. O.. ya tienes usuario? Logueate!
Creado por    franckable
Ver perfil de franckable franckable
Hombre Master  Mensaje
3,460 75 157
Medallas ganadas por este Post
1
Punteadores
Tags
Posts relacionados
Mas Post de     franckable
Términos y condiciones
Privacidad
Report - DMCA
Contacto
LoPeorDeLaWeb  © 2014 - 2024
Carga   0.546    Mls  
Basado en  PHPost 
Diseño de Kmario19
Adaptado por  jor51 
LoPeorDeLaWeb utiliza cookies. Lea nuestra Política de Privacidad para obtener más información. Para eliminar este mensaje, haga clic en el siguiente botón: Acepto el uso de cookies