The Secret of Nihm 1 & 2 (1982-98) [1080p] [Dual] [ZP]
Peliculas con audio Dual

The Secret of Nihm 1 & 2 (1982-98) [1080p] [Dual] [ZP]


The Secret of Nimh (1982)


The Secret of Nihm 1 & 2 (1982-98) [1080p] [Dual] [ZP]
The Secret of Nihm 1 & 2 (1982-98) [1080p] [Dual] [ZP]

Ante la amenaza de que el hogar de una familia de ratones de campo sea destruido, la madre, la señora Brisby, pide ayuda... Dibujos animados para los más pequeños de la casa, con una de las partituras más geniales del compositor de bandas sonoras Jerry Goldsmith.


GÉNERO
Animación. Aventuras. Infantil | Animales. Roedores

The Secret of Nihm 1 & 2 (1982-98) [1080p] [Dual] [ZP]
The Secret of Nihm 1 & 2 (1982-98) [1080p] [Dual] [ZP]

The Secret of Nihm 1 & 2 (1982-98) [1080p] [Dual] [ZP]

Complete name: The Secret of Nimh (1982) 1080p MultiAudio.mkv
Video
ID: 1
Format: AVC
File size: 2.34 GiB
Duration: 1 h 22 min
Overall bit rate: 4 041 kb/s
Bit rate: 2 500 kb/s
Width: 1 920 pixels
Height: 1 040 pixels
Frame rate: 23.976 (23976/1000) FPS
Writing library: x264

Audio #1
ID : 2
Format: AC-3
Bit rate: 256 kb/s
Channel(s): 2 channels
Duration: 1 h 22 min
Frame rate: 31.250 FPS (1536 SPF)
Stream size: 151 MiB (6%)
Title: Audio Latino Original 2.0

Audio #1
ID : 2
Format: AC-3
Bit rate: 256 kb/s
Channel(s): 2 channels
Duration: 1 h 22 min
Frame rate: 31.250 FPS (1536 SPF)
Stream size: 151 MiB (6%)
Title: Audio Latino ReDoblaje 2.0

Audio #3
ID : 4
Format: AC-3
Bit rate: 256 kb/s
Channel(s): 2 channels
Duration: 1 h 22 min
Frame rate: 31.250 FPS (1536 SPF)
Stream size: 152 MiB (6%)
Title: Audio English 2.0

Audio #4
ID : 5
Format: AC-3
Bit rate: 256 kb/s
Channel(s): 2 channels
Duration: 1 h 22 min
Frame rate: 31.250 FPS (1536 SPF)
Stream size: 152 MiB (6%)
Title: Audio Italiano 2.0

Audio #5
ID : 6
Format: AC-3
Bit rate: 256 kb/s
Channel(s): 2 channels
Duration: 1 h 22 min
Frame rate: 31.250 FPS (1536 SPF)
Stream size: 152 MiB (6%)
Title: Audio Portuguese 2.0

Audio #6
ID : 7
Format: AC-3
Bit rate: 256 kb/s
Channel(s): 2 channels
Duration: 1 h 22 min
Frame rate: 31.250 FPS (1536 SPF)
Stream size: 152 MiB (6%)
Title: Audio French 2.0

Text #1
ID : 8
Format: VobSub
Bit rate: 3 508 b/s
Duration: 1 h 16 min
Count of elements: 947
Stream size: 1.93 MiB (0%)
Language: Spanish

Text #2
ID : 9
Format: UTF-8
Bit rate: 47 b/s
Duration: 1 h 21 min
Count of elements: 962
Stream size: 28.6 KiB (0%)
Language: English

Text #3
ID : 10
Format: UTF-8
Bit rate: 0 b/s
Duration: 1 h 19 min
Count of elements: 20
Stream size: 561 Bytes (0%)
Language: English Canciones

Menu
00:00:00.000 : en:Capitolo 01-
00:03:52.232 : en:Capitolo 02-
00:07:03.048 : en:Capitolo 03-
00:09:56.346 : en:Capitolo 04-
00:11:53.004 : en:Capitolo 05-
00:14:42.298 : en:Capitolo 06-
00:17:39.892 : en:Capitolo 07-
00:20:41.866 : en:Capitolo 08-
00:24:19.541 : en:Capitolo 09-
00:26:26.084 : en:Capitolo 10-
00:31:57.332 : en:Capitolo 11-
00:34:36.241 : en:Capitolo 12-
00:38:56.960 : en:Capitolo 13-
00:44:51.981 : en:Capitolo 14-
00:47:43.402 : en:Capitolo 15-
00:50:56.595 : en:Capitolo 16-
00:53:59.528 : en:Capitolo 17-
00:56:34.683 : en:Capitolo 18-
01:03:14.457 : en:Capitolo 19-
01:07:37.095 : en:Capitolo 20-
01:10:34.230 : en:Capitolo 21-
01:12:46.404 : en:Capitolo 22-
01:15:02.915 : en:Capitolo 23-
01:17:51.667 : en:Capitolo 24-


The Secret of Nihm 1 & 2 (1982-98) [1080p] [Dual] [ZP]

The Secret of Nihm 1 & 2 (1982-98) [1080p] [Dual] [ZP]
The Secret of Nihm 1 & 2 (1982-98) [1080p] [Dual] [ZP]


The Secret of NIMH 2


The Secret of Nihm 1 & 2 (1982-98) [1080p] [Dual] [ZP]
The Secret of Nihm 1 & 2 (1982-98) [1080p] [Dual] [ZP]

El joven ratoncito Timmy arriesga su vida y el lugar secreto donde se esconde su familia, cuando intenta rescatar a sus hermanos, apresados en los laboratorios del malvado Nimh.... Timmy Brisby ha sido elegido líder de la comunidad. Jenny, otra refugiada en Thorn Valley, le pide a Timmy que vuelvan a Nimh para rescatar a sus padres que tuvo que dejar allí, este, acompañado de sus gatos guardaespaldas, Floyd y Muriel, encuentran el valor necesario para salvar a sus amigos, a la comunidad y a ellos mismos. Secuela lanzada directamente a vídeo/DVD del clásico de Don Bluch "El secreto de NIMH".


GÉNERO
Animación. Aventuras. Infantil | Secuela

The Secret of Nihm 1 & 2 (1982-98) [1080p] [Dual] [ZP]
The Secret of Nihm 1 & 2 (1982-98) [1080p] [Dual] [ZP]
The Secret of Nihm 1 & 2 (1982-98) [1080p] [Dual] [ZP]


Complete name: The Secret of NIMH 2 - Timmy to the Rescue (1998) 1080p.mkv
Video
ID: 1
Format: AVC
File size: 1.40 GiB
Duration: 1 h 5 min
Overall bit rate: 3 053 kb/s
Bit rate: 2 570 kb/s
Width: 1 348 pixels
Height: 1 080 pixels
Frame rate: 24.000 FPS
Writing library: x264

Audio #1
ID : 2
Format: AAC LC
Bit rate: 225 kb/s
Channel(s): 2 channels
Duration: 1 h 5 min
Frame rate: 46.875 FPS (1024 SPF)
Stream size: 105 MiB (7%)
Title: Audio Latino 2.0

Audio #2
ID : 3
Format: AAC LC
Bit rate: 255 kb/s
Channel(s): 6 channels
Duration: 1 h 5 min
Frame rate: 46.875 FPS (1024 SPF)
Stream size: 120 MiB (8%)
Title: Audio Ingles 5.1


The Secret of Nihm 1 & 2 (1982-98) [1080p] [Dual] [ZP]

The Secret of Nihm 1 & 2 (1982-98) [1080p] [Dual] [ZP]
The Secret of Nihm 1 & 2 (1982-98) [1080p] [Dual] [ZP]

The Secret of Nihm 1 & 2 (1982-98) [1080p] [Dual] [ZP]

The Secret of Nimh (1982) 1080p

Para poder ver los links necesitas estar Registrado .
O.. ya tienes cuenta? Logueate!



Pass: by_franckable
The Secret of Nihm 1 & 2 (1982-98) [1080p] [Dual] [ZP]
The Secret of NIMH 2: Timmy to the Rescue

Solo esta en ingles y 
castellano

Para poder ver los links necesitas estar Registrado .
O.. ya tienes cuenta? Logueate!



Pass: by_franckable
The Secret of Nihm 1 & 2 (1982-98) [1080p] [Dual] [ZP]


The Secret of Nihm 1 & 2 (1982-98) [1080p] [Dual] [ZP]
The Secret of Nihm 1 & 2 (1982-98) [1080p] [Dual] [ZP]

Si lo que encontraste en este Post te sirvió , no te olvides de agradecérselo al Uploader ;
Tu comentario y agradecimiento es su única recompensa y estimulo para seguir compartiendo.
Estadísticas
Creado 14.09.2020 a las 14:06 hs
Categoría Peliculas con audio Dual
  • 0
    Medallas
  • 0
    Favoritos
  • 75
    Visitas
  • 5/10
    LPDLW score
  • 5
    Votantes
  • 50
    Puntos
  • 0
    Seguidores
  • 0
    Recomendado
Comentarios
8
Cargando comentarios espera un momento...

Para poder comentar necesitas ser un usuario registrado , ¡ Registrarme Ahora !. O.. ya tienes usuario? Logueate!
Creado por    franckable
Ver perfil de franckable franckable
Hombre Avanzado  Mensaje
1,892 50 84
Medallas ganadas por este Post
No tiene medallas
Punteadores
Tags
Posts relacionados
Mas Post de     franckable
Términos y condiciones
Privacidad
Report - DMCA
Contacto
LoPeorDeLaWeb  © 2014 - 2020
Carga   0.403    Mls  
Basado en  PHPost 
Diseño de Kmario19
Adaptado por  jor51 
LoPeorDeLaWeb utiliza cookies. Lea nuestra Política de Privacidad para obtener más información. Para eliminar este mensaje, haga clic en el siguiente botón: Acepto el uso de cookies