Looney Tunes: Conejos en Fuga (2015) 1080p [Dual] [ZP]
Peliculas con audio Dual

Looney Tunes: Conejos en Fuga (2015) 1080p [Dual] [ZP]


Looney Tunes: Conejos en Fuga (2015)


Looney Tunes: Conejos en Fuga (2015) 1080p [Dual] [ZP]
Looney Tunes: Conejos en Fuga (2015) 1080p [Dual] [ZP]
Looney Tunes: Conejos en Fuga (2015) 1080p [Dual] [ZP]

Los Looney Tunes se embarcan en una carrera alrededor del mundo para conseguir un perfume único con propiedades especiales.


GÉNERO
Animación. Comedia | Looney Tunes

Looney Tunes: Conejos en Fuga (2015) 1080p [Dual] [ZP]
Looney Tunes: Conejos en Fuga (2015) 1080p [Dual] [ZP]
Looney Tunes: Conejos en Fuga (2015) 1080p [Dual] [ZP]
Looney Tunes: Conejos en Fuga (2015) 1080p [Dual] [ZP]



Complete name: Looney Tunes - Conejos en Fuga (2015) 1080p
Video
ID: 1
Format: AVC
File size: 1.58 GiB
Duration: 1 h 14 min
Overall bit rate: 3 048 kb/s
Bit rate: 2 500 kb/s
Width: 1 920 pixels
Height: 1 080 pixels
Frame rate: 23.976 (23976/1000) FPS
Writing library: x264

Audio #1
ID : 2
Format: AAC LC
Bit rate: 224 kb/s
Channel(s): 6 channels
Duration: 1 h 14 min
Frame rate: 46.875 FPS (1024 SPF)
Stream size: 119 MiB (7%)
Title: Audio Ingles

Audio #2
ID : 3
Format: AAC LC
Bit rate: 319 kb/s
Channel(s): 6 channels
Duration: 1 h 14 min
Frame rate: 46.875 FPS (1024 SPF)
Stream size: 170 MiB (10%)
Title: Audio Latino

Text #1
ID : 4
Format: UTF-8
Bit rate: 75 b/s
Duration: 1 h 11 min
Count of elements: 1282
Stream size: 39.6 KiB (0%)
Language: English



Looney Tunes: Conejos en Fuga (2015) 1080p [Dual] [ZP]
Looney Tunes: Conejos en Fuga (2015) 1080p [Dual] [ZP]
Looney Tunes: Conejos en Fuga (2015) 1080p [Dual] [ZP]

Para poder ver los links necesitas estar Registrado .
O.. ya tienes cuenta? Logueate!

Looney Tunes: Conejos en Fuga (2015) 1080p [Dual] [ZP]
Looney Tunes: Conejos en Fuga (2015) 1080p [Dual] [ZP]


Looney Tunes: Conejos en Fuga (2015) 1080p [Dual] [ZP]
Looney Tunes: Conejos en Fuga (2015) 1080p [Dual] [ZP]
Looney Tunes: Conejos en Fuga (2015) 1080p [Dual] [ZP]

Si lo que encontraste en este Post te sirvió , no te olvides de agradecérselo al Uploader ;
Tu comentario y agradecimiento es su única recompensa y estimulo para seguir compartiendo.
Estadísticas
Creado 27.08.2020 a las 13:46 hs
Categoría Peliculas con audio Dual
  • 1
    Medallas
  • 0
    Favoritos
  • 1351
    Visitas
  • 4.5/10
    LPDLW score
  • 5
    Votantes
  • 45
    Puntos
  • 0
    Seguidores
  • 0
    Recomendado
Comentarios
17
Cargando comentarios espera un momento...

Para poder comentar necesitas ser un usuario registrado , ¡ Registrarme Ahora !. O.. ya tienes usuario? Logueate!
Creado por    franckable
Ver perfil de franckable franckable
Hombre Master  Mensaje
3,435 77 157
Medallas ganadas por este Post
1
Punteadores
Tags
Posts relacionados
Mas Post de     franckable
Términos y condiciones
Privacidad
Report - DMCA
Contacto
LoPeorDeLaWeb  © 2014 - 2023
Carga   7.533    Mls  
Basado en  PHPost 
Diseño de Kmario19
Adaptado por  jor51 
LoPeorDeLaWeb utiliza cookies. Lea nuestra Política de Privacidad para obtener más información. Para eliminar este mensaje, haga clic en el siguiente botón: Acepto el uso de cookies