Mi Super Ex-Novia (2006) [Dual] [1080p] [ZP]
Peliculas con audio Dual

Mi Super Ex-Novia (2006) [Dual] [1080p] [ZP]


Mi Super Ex-Novia (2006)


Mi Super Ex-Novia (2006) [Dual] [1080p] [ZP]
Mi Super Ex-Novia (2006) [Dual] [1080p] [ZP]
Mi Super Ex-Novia (2006) [Dual] [1080p] [ZP]


Un tranquilo joven de Nueva York (Luke Wilson) se enamora de Jenny Johnson (Uma Thurman), una chica aparentemente normal que resulta ser una superhéroe, la chica-G. El problema será romper con una novia celosa y manipuladora... y con superpoderes que no está dispuesta a que la relación se acabe.


REPARTO
Uma Thurman, Luke Wilson, Anna Faris, Eddie Izzard, Wanda Sykes, Rainn Wilson


GÉNERO
Comedia. Fantástico. Romance | Superhéroes. Comedia romántica



Mi Super Ex-Novia (2006) [Dual] [1080p] [ZP]
Titulo Original.: My Super Ex-Girlfriend (2006)
Titulo Latino.: Mi Super Ex-Novia (2006)
Formato: MKV
Idioma 1: Ingles 5.1
Idioma 2: Latino 2.0
Subtitulos: Español e Ingles
Resolución: 1080p x264
Peso: 2.06 GiB
Duración: 1 h 36 min

Mi Super Ex-Novia (2006) [Dual] [1080p] [ZP]
Mi Super Ex-Novia (2006) [Dual] [1080p] [ZP]



Complete name: My Super Ex-Girlfriend (2006) 1080p.mkv
Video
ID: 1
Format: AVC
File size: 2.06 GiB
Duration: 1 h 36 min
Overall bit rate: 3 048 kb/s
Bit rate: 2 500 kb/s
Width: 1 920 pixels
Height: 800 pixels
Frame rate: 23.976 (23976/1000) FPS
Writing library: x264

Audio #1
ID : 2
Format: AAC LC
Bit rate: 224 kb/s
Channel(s): 6 channels
Duration: 1 h 36 min
Frame rate: 46.875 FPS (1024 SPF)
Stream size: 155 MiB (7%)
Title: Audio Ingles

Audio #2
ID : 3
Format: AAC LC
Bit rate: 320 kb/s
Channel(s): 2 channels
Duration: 1 h 36 min
Frame rate: 46.875 FPS (1024 SPF)
Stream size: 221 MiB (11%)
Title: Audio Latino

Text #1
ID : 4
Format: UTF-8
Bit rate: 54 b/s
Duration: 1 h 30 min
Count of elements: 1103
Stream size: 34.6 KiB (0%)
Language: Spanish

Text #2
ID : 5
Format: UTF-8
Bit rate: 66 b/s
Duration: 1 h 34 min
Count of elements: 1187
Stream size: 45.6 KiB (0%)
Language: English


Mi Super Ex-Novia (2006) [Dual] [1080p] [ZP]
Mi Super Ex-Novia (2006) [Dual] [1080p] [ZP]



Mi Super Ex-Novia (2006) [Dual] [1080p] [ZP]
Mi Super Ex-Novia (2006) [Dual] [1080p] [ZP]

Mi Super Ex-Novia (2006) [Dual] [1080p] [ZP]

Para poder ver los links necesitas estar Registrado .
O.. ya tienes cuenta? Logueate!

Mi Super Ex-Novia (2006) [Dual] [1080p] [ZP]
Mi Super Ex-Novia (2006) [Dual] [1080p] [ZP]



Mi Super Ex-Novia (2006) [Dual] [1080p] [ZP]
Mi Super Ex-Novia (2006) [Dual] [1080p] [ZP]
Mi Super Ex-Novia (2006) [Dual] [1080p] [ZP]

Si lo que encontraste en este Post te sirvió , no te olvides de agradecérselo al Uploader ;
Tu comentario y agradecimiento es su única recompensa y estimulo para seguir compartiendo.
Estadísticas
Creado 20.08.2020 a las 17:45 hs
Categoría Peliculas con audio Dual
  • 1
    Medallas
  • 0
    Favoritos
  • 1537
    Visitas
  • 6/10
    LPDLW score
  • 6
    Votantes
  • 60
    Puntos
  • 0
    Seguidores
  • 0
    Recomendado
Comentarios
26
Cargando comentarios espera un momento...

Para poder comentar necesitas ser un usuario registrado , ¡ Registrarme Ahora !. O.. ya tienes usuario? Logueate!
Creado por    franckable
Ver perfil de franckable franckable
Hombre Master  Mensaje
3,455 77 157
Medallas ganadas por este Post
1
Punteadores
Tags
Posts relacionados
Mas Post de     franckable
Términos y condiciones
Privacidad
Report - DMCA
Contacto
LoPeorDeLaWeb  © 2014 - 2023
Carga   0.522    Mls  
Basado en  PHPost 
Diseño de Kmario19
Adaptado por  jor51 
LoPeorDeLaWeb utiliza cookies. Lea nuestra Política de Privacidad para obtener más información. Para eliminar este mensaje, haga clic en el siguiente botón: Acepto el uso de cookies