Buena Hamburguesa (1997) Dual [1080p] [ZP]
Peliculas con audio Dual

Buena Hamburguesa (1997) Dual [1080p] [ZP]


Buena Hamburguesa (1997)


Buena Hamburguesa (1997) Dual [1080p] [ZP]
Buena Hamburguesa (1997) Dual [1080p] [ZP]
Buena Hamburguesa (1997) Dual [1080p] [ZP]


Dexter (Kenan Thompson) y Ed (Kel Mitchell) son los empleados de Good Burger, un negocio de comida rápida. Un día un local de la gran Mondo Burger abre justo enfrente del diminuto local de Good Burger. Ed y Dexter intentarán entonces salvar sus trabajos y evitar que Mondo Burger domine el mercado de la hamburguesas.


REPARTO
Kel Mitchell, Kenan Thompson, Sinbad, Abe Vigoda, Shar Jackson, Dan Schneider, Ron Lester, Jan Schweiterman, Josh Server, Ginny Schreiber, Carmen Electra, Rob Elk, Linda Cardellini, David Shackelford, Shaquille O'Neal


GÉNERO
Comedia | Cocina. Cine familiar

Buena Hamburguesa (1997) Dual [1080p] [ZP]
Titulo Original.: Good Burger (1997)
Titulo Latino.: Buena Hamburguesa (1997)
Formato: MKV
Idioma 1: Ingles 5.1
Idioma 2: Latino 2.0
Subtitulos: Español e Ingles
Resolución: 1080p x264
Peso: 2.03 GiB
Duración: 1 h 35 min

Buena Hamburguesa (1997) Dual [1080p] [ZP]
Buena Hamburguesa (1997) Dual [1080p] [ZP]



Complete name: Good Burger (1997) 1080p.mkv
Video
ID: 1
Format: AVC
File size: 2.03 GiB
Duration: 1 h 35 min
Overall bit rate: 3 047 kb/s
Bit rate: 2 500 kb/s
Width: 1 920 pixels
Height: 1 080 pixels
Frame rate: 23.976 (23976/1000) FPS
Writing library: x264

Audio #1
ID : 2
Format: AAC LC
Bit rate: 224 kb/s
Channel(s): 6 channels
Duration: 1 h 35 min
Frame rate: 46.875 FPS (1024 SPF)
Stream size: 153 MiB (7%)
Title: Audio Ingles

Audio #2
ID : 3
Format: AAC LC
Bit rate: 320 kb/s
Channel(s): 2 channels
Duration: 1 h 35 min
Frame rate: 46.875 FPS (1024 SPF)
Stream size: 219 MiB (11%)
Title: Audio Latino

Text #1
ID : 4
Format: UTF-8
Bit rate: 52 b/s
Duration: 1 h 29 min
Count of elements: 1077
Stream size: 34.6 KiB (0%)
Language: Spanish

Text #2
ID : 5
Format: UTF-8
Bit rate: 87 b/s
Duration: 1 h 34 min
Count of elements: 2488
Stream size: 60.5 KiB (0%)
Language: English


Buena Hamburguesa (1997) Dual [1080p] [ZP]
Buena Hamburguesa (1997) Dual [1080p] [ZP]



Buena Hamburguesa (1997) Dual [1080p] [ZP]
Buena Hamburguesa (1997) Dual [1080p] [ZP]

Buena Hamburguesa (1997) Dual [1080p] [ZP]


Para poder ver los links necesitas estar Registrado .
O.. ya tienes cuenta? Logueate!

Buena Hamburguesa (1997) Dual [1080p] [ZP]
Buena Hamburguesa (1997) Dual [1080p] [ZP]



Buena Hamburguesa (1997) Dual [1080p] [ZP]
Buena Hamburguesa (1997) Dual [1080p] [ZP]
Buena Hamburguesa (1997) Dual [1080p] [ZP]

Si lo que encontraste en este Post te sirvió , no te olvides de agradecérselo al Uploader ;
Tu comentario y agradecimiento es su única recompensa y estimulo para seguir compartiendo.
Estadísticas
Creado 20.08.2020 a las 15:41 hs
Categoría Peliculas con audio Dual
  • 0
    Medallas
  • 0
    Favoritos
  • 942
    Visitas
  • 2.5/10
    LPDLW score
  • 3
    Votantes
  • 22
    Puntos
  • 0
    Seguidores
  • 0
    Recomendado
Comentarios
14
Cargando comentarios espera un momento...

Para poder comentar necesitas ser un usuario registrado , ¡ Registrarme Ahora !. O.. ya tienes usuario? Logueate!
Creado por    franckable
Ver perfil de franckable franckable
Hombre Master  Mensaje
3,435 77 157
Medallas ganadas por este Post
No tiene medallas
Punteadores
Tags
Posts relacionados
Mas Post de     franckable
Términos y condiciones
Privacidad
Report - DMCA
Contacto
LoPeorDeLaWeb  © 2014 - 2022
Carga   0.493    Mls  
Basado en  PHPost 
Diseño de Kmario19
Adaptado por  jor51 
LoPeorDeLaWeb utiliza cookies. Lea nuestra Política de Privacidad para obtener más información. Para eliminar este mensaje, haga clic en el siguiente botón: Acepto el uso de cookies