Attack The Block (2011) 1080p [Trial] MG-ZP
Peliculas con audio Dual

Attack The Block (2011) 1080p [Trial] MG-ZP



Attack The Block (2011)



Attack The Block (2011) 1080p [Trial] MG-ZP
Attack The Block (2011) 1080p [Trial] MG-ZP
Attack The Block (2011) 1080p [Trial] MG-ZP



En pleno Londres, un grupo de chavales tendrá que enfrentarse a una invasión de alienígenas. Todo empieza cuando los adolescentes asaltan a una enfermera, a la que dejan en paz, cuando un extraño objeto aterriza sobre un coche. Al acercarse al vehículo, de su interior sale una extraña criatura...


REPARTO
John Boyega, Jodie Whittaker, Alex Esmail, Franz Drameh, Leeon Jones, Simon Howard, Luke Treadaway, Jumayn Hunter, Danielle Vitalis, Paige Meade, Sammy Williams, Michael Ajao, Nick Frost, Joey Ansah


GÉNERO
Ciencia ficción. Acción. Terror | Comedia de terror. Extraterrestres



Titulo original: Attack The Block (2011)
Formato: MKV
Idioma 1: Ingles 5.1
Idioma 2: Latino 2.0
Idioma 3: Italiano 5.1
Subtitulos: Español e Inglés
Resolución: 1080p
Peso: 2.20 GiB
Duración: 1 h 24 min



contraseña: by_franckable

Attack The Block (2011) 1080p [Trial] MG-ZP
Attack The Block (2011) 1080p [Trial] MG-ZP




Complete name: Attack the Block (2011) 1080p.mkv
Video
ID: 1
File size: 2.20 GiB
Duration: 1 h 24 min
Overall bit rate: 3 732 kb/s
Bit rate: 2 600 kb/s
Width: 1 920 pixels
Height: 800 pixels
Frame rate: 25.000 FPS
Writing library: x264 core 157 r2935 545de2f

Audio #1
ID : 2
Format: A_AC3
Bit rate: 384 kb/s
Channel(s): 6 channels
Duration: 1 h 24 min
Frame rate: 31.250 FPS (1536 SPF)
Stream size: 231 MiB (10%)
Title: Audio Eng Ac3 5.1

Audio #2
ID : 3
Format: AAC LC
Bit rate: 320 kb/s
Channel(s): 2 channels
Duration: 1 h 24 min
Frame rate: 43.066 FPS (1024 SPF)
Stream size: 193 MiB (9%)
Title: Audio Latino 2.0

Audio #3
ID : 4
Format: A_AC3
Bit rate: 448 kb/s
Channel(s): 6 channels
Duration: 1 h 24 min
Frame rate: 31.250 FPS (1536 SPF)
Stream size: 270 MiB (12%)
Title: Audio Ita Ac3 5.1

Text #1
ID : 5
Format: UTF-8
Bit rate: 66 b/s
Duration: 1 h 17 min
Count of elements: 990
Stream size: 37.7 KiB (0%)
Language: Spanish

Text #2
ID : 6
Format: UTF-8
Bit rate: 67 b/s
Duration: 1 h 22 min
Count of elements: 1177
Stream size: 40.8 KiB (0%)
Language: English


Attack The Block (2011) 1080p [Trial] MG-ZP
Attack The Block (2011) 1080p [Trial] MG-ZP




Attack The Block (2011) 1080p [Trial] MG-ZP
Attack The Block (2011) 1080p [Trial] MG-ZP



Attack The Block (2011) 1080p [Trial] MG-ZP



Para poder ver los links necesitas estar Registrado .
O.. ya tienes cuenta? Logueate!






Attack The Block (2011) 1080p [Trial] MG-ZP


Para poder ver los links necesitas estar Registrado .
O.. ya tienes cuenta? Logueate!




Attack The Block (2011) 1080p [Trial] MG-ZP

Attack The Block (2011) 1080p [Trial] MG-ZP



Attack The Block (2011) 1080p [Trial] MG-ZP
Attack The Block (2011) 1080p [Trial] MG-ZP

Attack The Block (2011) 1080p [Trial] MG-ZP

Si lo que encontraste en este Post te sirvió , no te olvides de agradecérselo al Uploader ;
Tu comentario y agradecimiento es su única recompensa y estimulo para seguir compartiendo.
Estadísticas
Creado 17.07.2020 a las 01:10 hs
Categoría Peliculas con audio Dual
  • 1
    Medallas
  • 0
    Favoritos
  • 1387
    Visitas
  • 2.5/10
    LPDLW score
  • 4
    Votantes
  • 25
    Puntos
  • 0
    Seguidores
  • 0
    Recomendado
Comentarios
16
Cargando comentarios espera un momento...

Para poder comentar necesitas ser un usuario registrado , ¡ Registrarme Ahora !. O.. ya tienes usuario? Logueate!
Creado por    franckable
Ver perfil de franckable franckable
Hombre Master  Mensaje
3,460 75 157
Medallas ganadas por este Post
1
Punteadores
Tags
Posts relacionados
Mas Post de     franckable
Términos y condiciones
Privacidad
Report - DMCA
Contacto
LoPeorDeLaWeb  © 2014 - 2024
Carga   0.517    Mls  
Basado en  PHPost 
Diseño de Kmario19
Adaptado por  jor51 
LoPeorDeLaWeb utiliza cookies. Lea nuestra Política de Privacidad para obtener más información. Para eliminar este mensaje, haga clic en el siguiente botón: Acepto el uso de cookies