Los Siete Magníficos (2016) 1080p Dual MG-ZP
Peliculas con audio Dual

Los Siete Magníficos (2016) 1080p Dual MG-ZP



Los Siete Magníficos (2016)



Los Siete Magníficos (2016) 1080p Dual MG-ZP
Los Siete Magníficos (2016) 1080p Dual MG-ZP
Los Siete Magníficos (2016) 1080p Dual MG-ZP



Los habitantes de Rose Creek, atemorizados bajo el control del industrial Bartholomew Bogue, deciden contratar a siete forajidos para terminar con la amenaza: Sam Chisolm (Denzel Washington), Josh Faraday (Chris Pratt), Goodnight Robicheaux (Ethan Hawke), Jack Home (Vincent D´Onofrio), Billy Rocks (Byung-Hun Lee), Vasquez (Manuel García Rulfo) y Red Harvest (Martin Sensmeier). Sin embargo, pronto se darán cuenta estos siete que están luchando por algo más que el simple dinero. Remake del western homónimo de John Sturges, a su vez remake de 'Los siete samuráis' de Akira Kurosawa.


REPARTO
Denzel Washington, Chris Pratt, Ethan Hawke, Vincent D'Onofrio, Lee Byung-hun, Manuel García-Rulfo, Martin Sensmeier, Haley Bennett, Peter Sarsgaard, Matt Bomer, Luke Grimes, Cam Gigandet, Kevin Wayne, Thomas Blake Jr., Miles Doleac, Jonathan Joss..



Titulo original: The Magnificent Seven (2016)
Titulo lat.: Los Siete Magníficos (2016)
Formato: MKV
Idioma 1: Ingles 5.1
Idioma 2: Latino 5.1
Subtitulos: Español
Resolución: 1080p
Peso: 2.89 GiB
Duración: 2 h 12 min


contraseña: by_franckable

Los Siete Magníficos (2016) 1080p Dual MG-ZP
Los Siete Magníficos (2016) 1080p Dual MG-ZP




Complete name: The Magnificent Seven (2016).mkv
Video
ID: 1
File size: 2.89 GiB
Duration: 2 h 12 min
Overall bit rate: 3 111 kb/s
Bit rate: 2 500 kb/s
Width: 1 920 pixels
Height: 800 pixels

Audio #1
ID : 2
Format: AAC LC
Bit rate: 224 kb/s
Channel(s): 6 channels
Stream size: 213 MiB (7%)
Title: Audio Ingles

Audio #2
ID : 3
Format: AC-3
Bit rate: 384 kb/s
Channel(s): 6 channels
Stream size: 365 MiB (12%)
Title: Audio Latino

Text #1
ID : 4
Format: UTF-8
Bit rate: 41 b/s
Duration: 2 h 6 min
Count of elements: 1356
Stream size: 38.5 KiB (0%)
Language: Spanish

Text #2
ID : 5
Format: UTF-8
Bit rate: 0 b/s
Duration: 2 h 6 min
Count of elements: 25
Stream size: 637 Bytes (0%)
Language: Spanish Forzados


Los Siete Magníficos (2016) 1080p Dual MG-ZP
Los Siete Magníficos (2016) 1080p Dual MG-ZP


Los Siete Magníficos (2016) 1080p Dual MG-ZP

Los Siete Magníficos (2016) 1080p Dual MG-ZP

Los Siete Magníficos (2016) 1080p Dual MG-ZP

Los Siete Magníficos (2016) 1080p Dual MG-ZP

Los Siete Magníficos (2016) 1080p Dual MG-ZP

Los Siete Magníficos (2016) 1080p Dual MG-ZP
Los Siete Magníficos (2016) 1080p Dual MG-ZP


Los Siete Magníficos (2016) 1080p Dual MG-ZP


Para poder ver los links necesitas estar Registrado .
O.. ya tienes cuenta? Logueate!





Los Siete Magníficos (2016) 1080p Dual MG-ZP

Para poder ver los links necesitas estar Registrado .
O.. ya tienes cuenta? Logueate!




Los Siete Magníficos (2016) 1080p Dual MG-ZP
Los Siete Magníficos (2016) 1080p Dual MG-ZP


contraseña: by_franckable

Los Siete Magníficos (2016) 1080p Dual MG-ZP
Los Siete Magníficos (2016) 1080p Dual MG-ZP

Los Siete Magníficos (2016) 1080p Dual MG-ZP

Si lo que encontraste en este Post te sirvió , no te olvides de agradecérselo al Uploader ;
Tu comentario y agradecimiento es su única recompensa y estimulo para seguir compartiendo.
Estadísticas
Creado 28.06.2020 a las 13:50 hs
Categoría Peliculas con audio Dual
  • 0
    Medallas
  • 0
    Favoritos
  • 46
    Visitas
  • 3/10
    LPDLW score
  • 4
    Votantes
  • 27
    Puntos
  • 0
    Seguidores
  • 0
    Recomendado
Comentarios
3
Cargando comentarios espera un momento...

Para poder comentar necesitas ser un usuario registrado , ¡ Registrarme Ahora !. O.. ya tienes usuario? Logueate!
Creado por    franckable
Ver perfil de franckable franckable
Hombre Full User  Mensaje
687 20 40
Medallas ganadas por este Post
No tiene medallas
Punteadores
Tags
Posts relacionados
Mas Post de     franckable
Términos y condiciones
Privacidad
Report - DMCA
Contacto
LoPeorDeLaWeb  © 2014 - 2020
Carga   0.679    Mls  
Basado en  PHPost 
Diseño de Kmario19
Adaptado por  jor51 
LoPeorDeLaWeb utiliza cookies. Lea nuestra Política de Privacidad para obtener más información. Para eliminar este mensaje, haga clic en el siguiente botón: Acepto el uso de cookies