El Apostador (2014) 1080p Dual MG-ZP
Peliculas con audio Dual

El Apostador (2014) 1080p Dual MG-ZP



El Apostador (2014)



El Apostador (2014) 1080p Dual MG-ZP

El Apostador (2014) 1080p Dual MG-ZP
El Apostador (2014) 1080p Dual MG-ZP



Jim Bennett es un profesor de literatura de la universidad con un grave problema: le gusta demasiado apostar. Debido a su ludopatía, el profesor ahora tiene muchas deudas que saldar, deudas que le conducen hacia una nuevas amistades para nada recomendables. Bennet no sabe cómo pagar el dinero que debe y ya no tiene a quién acudir, por lo que se encamina a los bajos fondos de la ciudad en busca de una salida, pero allí no encontrará más que nuevos problemas.

REPARTO
Mark Wahlberg, Brie Larson, Jessica Lange, John Goodman, Sonya Walger, Michael Kenneth Williams, Emory Cohen, Leland Orser, George Kennedy, Richard Schiff, Domenick Lombardozzi, Griffin Cleveland, Steve Park, Michael Kenneth Williams



Titulo original: The Gambler (2014)
Titulo lat.: El Apostador (2014)
Formato: MKV
Idioma 1: Ingles 5.1
Idioma 2: Latino 2.0
Subtitulos: Español e Ingles
Resolución: 1080p
Peso: 2.83 GiB
Duración: 1 h 50 min



contraseña: by_franckable

El Apostador (2014) 1080p Dual MG-ZP
El Apostador (2014) 1080p Dual MG-ZP




Complete name: Seven Psychopaths (2012).mkv
Video
ID: 1
File size: 2.83 GiB
Duration: 1 h 50 min
Overall bit rate: 3 655 kb/s
Bit rate: 2 950 kb/s
Width: 1 920 pixels
Height: 1 080 pixels
Writing library: x264 core 146 r2538 121396c

Audio #1
ID : 2
Format: AC-3
Bit rate: 448 kb/s
Channel(s): 6 channels
Stream size: 356 MiB (12%)
Title: Audio Ingles

Audio #2
ID : 3
Format: AC-3
Bit rate: 256 kb/s
Channel(s): 2 channels
Stream size: 203 MiB (7%)
Title: Audio Latino

Text #1
ID : 4
Format: UTF-8
Bit rate: 52 b/s
Duration: 1 h 45 min
Count of elements: 1137
Stream size: 40.8 KiB (0%)
Language: Spanish

Text #2
ID : 5
Format: UTF-8
Bit rate: 61 b/s
Duration: 1 h 42 min
Count of elements: 1469
Stream size: 46.3 KiB (0%)
Language: English


El Apostador (2014) 1080p Dual MG-ZP
El Apostador (2014) 1080p Dual MG-ZP


El Apostador (2014) 1080p Dual MG-ZP

El Apostador (2014) 1080p Dual MG-ZP

El Apostador (2014) 1080p Dual MG-ZP

El Apostador (2014) 1080p Dual MG-ZP

El Apostador (2014) 1080p Dual MG-ZP

El Apostador (2014) 1080p Dual MG-ZP
El Apostador (2014) 1080p Dual MG-ZP


El Apostador (2014) 1080p Dual MG-ZP


Para poder ver los links necesitas estar Registrado .
O.. ya tienes cuenta? Logueate!
[/jd]


El Apostador (2014) 1080p Dual MG-ZP


Para poder ver los links necesitas estar Registrado .
O.. ya tienes cuenta? Logueate!



El Apostador (2014) 1080p Dual MG-ZP

El Apostador (2014) 1080p Dual MG-ZP




El Apostador (2014) 1080p Dual MG-ZP
El Apostador (2014) 1080p Dual MG-ZP

El Apostador (2014) 1080p Dual MG-ZP

Si lo que encontraste en este Post te sirvió , no te olvides de agradecérselo al Uploader ;
Tu comentario y agradecimiento es su única recompensa y estimulo para seguir compartiendo.
Estadísticas
Creado 27.06.2020 a las 21:21 hs
Categoría Peliculas con audio Dual
  • 0
    Medallas
  • 0
    Favoritos
  • 58
    Visitas
  • 3/10
    LPDLW score
  • 3
    Votantes
  • 27
    Puntos
  • 0
    Seguidores
  • 0
    Recomendado
Comentarios
3
Cargando comentarios espera un momento...

Para poder comentar necesitas ser un usuario registrado , ¡ Registrarme Ahora !. O.. ya tienes usuario? Logueate!
Creado por    franckable
Ver perfil de franckable franckable
Hombre Full User  Mensaje
687 20 40
Medallas ganadas por este Post
No tiene medallas
Punteadores
Tags
Posts relacionados
Mas Post de     franckable
Términos y condiciones
Privacidad
Report - DMCA
Contacto
LoPeorDeLaWeb  © 2014 - 2020
Carga   0.389    Mls  
Basado en  PHPost 
Diseño de Kmario19
Adaptado por  jor51 
LoPeorDeLaWeb utiliza cookies. Lea nuestra Política de Privacidad para obtener más información. Para eliminar este mensaje, haga clic en el siguiente botón: Acepto el uso de cookies