Aquellos Viejos Tiempos (2003) 1080p Dual MG-ZP
Peliculas con audio Dual

Aquellos Viejos Tiempos (2003) 1080p Dual MG-ZP



Aquellos Viejos Tiempos (2003)



Aquellos Viejos Tiempos (2003) 1080p Dual MG-ZP



Aquellos Viejos Tiempos (2003) 1080p Dual MG-ZP



Tres amigos que quieren recuperar los tiempos de desenfrenada diversión de la Universidad, deciden fundar una fraternidad fuera del campus. Sus vidas no son exactamente lo que esperaban: Mitch tiene una novia ninfómana, y Frank y Beanie se han casado, pero echan de menos las alocadas juergas de su juventud.


REPARTO
Will Ferrell, Vince Vaughn, Luke Wilson, Jeremy Piven, Juliette Lewis, Elisha Cuthbert, Sean William Scott, Ellen Pompeo.



Titulo original: Old School (2003)
Titulo lat.: Aquellos Viejos Tiempos (2003)
Formato: MKV
Idioma 1: Ingles 5.1
Idioma 2: Latino 5.1
Subtitulos: Español
Subtitulos forzados: Español
Resolución: 1080p
Peso: 3.15 GiB
Duración: 1 h 31 min



contraseña: by_franckable



Aquellos Viejos Tiempos (2003) 1080p Dual MG-ZP




Complete name: Murder on the Orient Express (2017).mkv
Video
ID: 1
File size: 3.15 GiB
Duration: 1 h 31 min
Overall bit rate: 4 905 kb/s
Bit rate: 4 007 kb/s
Width: 1 920 pixels
Height: 1 080 pixels

Audio #1
ID : 2
Format: AC-3
Bit rate: 448 kb/s
Channel(s): 6 channels
Stream size: 294 MiB (9%)
Title: Audio Ingles

Audio #2
ID : 3
Format: AC-3
Bit rate: 448 kb/s
Channel(s): 6 channels
Stream size: 294 MiB (9%)
Title: Audio Latino

Text #1
ID : 4
Format: UTF-8
Bit rate: 70 b/s
Duration: 1 h 29 min
Count of elements: 1356
Stream size: 46.0 KiB (0%)
Language: Spanish

Text #2
ID : 5
Format: UTF-8
Bit rate: 0 b/s
Duration: 1 h 25 min
Count of elements: 5
Stream size: 82.0 Bytes (0%)
Language: Spanish

Menu
00:00:00.000 : enurprise!
00:06:11.662 : en:Frank's Wedding
00:12:24.660 : en:The New Pad
00:16:33.742 : en:Mitch-a-Palooza
00:23:37.124 : en:Meet Dean "Cheese"
00:27:26.728 : en:Therapy
00:31:36.477 : entarting a Fraternity
00:34:42.997 : en:Kidnapping the Pledges
00:41:01.250 : en:Nicole Stops By
00:43:05.207 : en:Art of the Blow Job
00:47:00.359 : en:Max's Birthday
00:55:04.592 : en:Bribing the Student Council
00:58:17.368 : en:Ky Wrestling
01:01:28.685 : enust in the Wind
01:04:31.659 : en:Who's The Real Mitch
01:08:18.177 : en:Expelled From Campus
01:13:24.775 : en:Charter Review
01:18:23.240 : en:Final Test
01:22:11.217 : en:Incriminating Evidence
01:24:26.186 : en:Epilogue (End Credits)
01:31:50.254 : en:End




Aquellos Viejos Tiempos (2003) 1080p Dual MG-ZP



Aquellos Viejos Tiempos (2003) 1080p Dual MG-ZP

Aquellos Viejos Tiempos (2003) 1080p Dual MG-ZP

Aquellos Viejos Tiempos (2003) 1080p Dual MG-ZP

Aquellos Viejos Tiempos (2003) 1080p Dual MG-ZP

Aquellos Viejos Tiempos (2003) 1080p Dual MG-ZP




Aquellos Viejos Tiempos (2003) 1080p Dual MG-ZP



Aquellos Viejos Tiempos (2003) 1080p Dual MG-ZP



Para poder ver los links necesitas estar Registrado .
O.. ya tienes cuenta? Logueate!





Aquellos Viejos Tiempos (2003) 1080p Dual MG-ZP



Para poder ver los links necesitas estar Registrado .
O.. ya tienes cuenta? Logueate!





contraseña: by_franckable



Aquellos Viejos Tiempos (2003) 1080p Dual MG-ZP

Aquellos Viejos Tiempos (2003) 1080p Dual MG-ZP

Si lo que encontraste en este Post te sirvió , no te olvides de agradecérselo al Uploader ;
Tu comentario y agradecimiento es su única recompensa y estimulo para seguir compartiendo.
Estadísticas
Creado 19.06.2020 a las 22:25 hs
Categoría Peliculas con audio Dual
  • 1
    Medallas
  • 0
    Favoritos
  • 1619
    Visitas
  • 5/10
    LPDLW score
  • 7
    Votantes
  • 50
    Puntos
  • 0
    Seguidores
  • 0
    Recomendado
Comentarios
10
Cargando comentarios espera un momento...

Para poder comentar necesitas ser un usuario registrado , ¡ Registrarme Ahora !. O.. ya tienes usuario? Logueate!
Creado por    franckable
Ver perfil de franckable franckable
Hombre Master  Mensaje
3,460 75 157
Medallas ganadas por este Post
1
Punteadores
Tags
Posts relacionados
Mas Post de     franckable
Términos y condiciones
Privacidad
Report - DMCA
Contacto
LoPeorDeLaWeb  © 2014 - 2024
Carga   0.588    Mls  
Basado en  PHPost 
Diseño de Kmario19
Adaptado por  jor51 
LoPeorDeLaWeb utiliza cookies. Lea nuestra Política de Privacidad para obtener más información. Para eliminar este mensaje, haga clic en el siguiente botón: Acepto el uso de cookies