Star Wars IV 1080p HEVC Trial Latino original 5.1
Peliculas audio Latino

Star Wars IV 1080p HEVC Trial Latino original 5.1


La princesa Leia, líder del movimiento rebelde que desea reinstaurar la República en la galaxia en los tiempos ominosos del Imperio, es capturada por las Fuerzas Imperiales, capitaneadas por el implacable Darth Vader, el sirviente más fiel del Emperador. El intrépido y joven Luke Skywalker, ayudado por Han Solo, capitán de la nave espacial "El Halcón Milenario", y los androides, R2D2 y C3PO, serán los encargados de luchar contra el enemigo e intentar rescatar a la princesa para volver a instaurar la justicia en el seno de la galaxia. (FILMAFFINITY)





Star Wars IV 1080p HEVC Trial Latino original 5.1


Star Wars IV 1080p HEVC Trial Latino original 5.1


Format : Matroska
Format version : Version 4
File size : 2.54 GiB
Duration : 2 h 4 min
Overall bit rate : 2 915 kb/s
Encoded date : UTC 2023-04-05 21:42:20
Writing application : mkvmerge v10.0.0 ('To Drown In You') 32bit
Writing library : libebml v1.3.4 + libmatroska v1.4.5

Video
ID : 1
Format : HEVC
Format/Info : High Efficiency Video Coding
Format profile : Main 10@L4@Main
Codec ID : V_MPEGH/ISO/HEVC
Duration : 2 h 4 min
Bit rate : 2 000 kb/s
Width : 1 920 pixels
Height : 804 pixels
Display aspect ratio : 2.40:1
Frame rate mode : Constant
Frame rate : 23.976 (24000/1001) FPS
Color space : YUV
Chroma subsampling : 4:2:0
Bit depth : 10 bits
Bits/(Pixel*Frame) : 0.054
Stream size : 1.74 GiB (69%)
Writing library : x265 3.3+4-rarbg-30eb4de83092Linux][GCC 8.3.1][64 bit] 10bit
Encoding settings : cpuid=1111039 / frame-threads=4 / wpp / no-pmode / no-pme / no-psnr / no-ssim / log-level=2 / input-csp=1 / input-res=1920x804 / interlace=0 / total-frames=0 / level-idc=0 / high-tier=1 / uhd-bd=0 / ref=4 / no-allow-non-conformance / no-repeat-headers / annexb / no-aud / no-hrd / info / hash=0 / no-temporal-layers / open-gop / min-keyint=23 / keyint=250 / gop-lookahead=0 / bframes=4 / b-adapt=2 / b-pyramid / bframe-bias=0 / rc-lookahead=25 / lookahead-slices=4 / scenecut=40 / hist-scenecut=0 / radl=0 / no-splice / no-intra-refresh / ctu=64 / min-cu-size=8 / rect / no-amp / max-tu-size=32 / tu-inter-depth=1 / tu-intra-depth=1 / limit-tu=0 / rdoq-level=2 / dynamic-rd=0.00 / no-ssim-rd / signhide / no-tskip / nr-intra=0 / nr-inter=0 / no-constrained-intra / strong-intra-smoothing / max-merge=3 / limit-refs=3 / limit-modes / me=3 / subme=3 / merange=57 / temporal-mvp / no-frame-dup / no-hme / weightp / no-weightb / no-analyze-src-pics / deblock=0:0 / no-sao / no-sao-non-deblock / rd=4 / selective-sao=0 / no-early-skip / rskip / no-fast-intra / no-tskip-fast / no-cu-lossless / no-b-intra / no-splitrd-skip / rdpenalty=0 / psy-rd=2.00 / psy-rdoq=1.00 / no-rd-refine / no-lossless / cbqpoffs=0 / crqpoffs=0 / rc=abr / bitrate=2000 / qcomp=0.60 / qpstep=4 / stats-write=0 / stats-read=2 / cplxblur=20.0 / qblur=0.5 / ipratio=1.40 / pbratio=1.30 / aq-mode=3 / aq-strength=1.00 / cutree / zone-count=0 / no-strict-cbr / qg-size=32 / no-rc-grain / qpmax=69 / qpmin=0 / no-const-vbv / sar=1 / overscan=0 / videoformat=5 / range=0 / colorprim=2 / transfer=2 / colormatrix=2 / chromaloc=0 / display-window=0 / cll=0,0 / min-luma=0 / max-luma=1023 / log2-max-poc-lsb=8 / vui-timing-info / vui-hrd-info / slices=1 / no-opt-qp-pps / no-opt-ref-list-length-pps / no-multi-pass-opt-rps / scenecut-bias=0.05 / hist-threshold=0.01 / no-opt-cu-delta-qp / no-aq-motion / no-hdr10 / no-hdr10-opt / no-dhdr10-opt / no-idr-recovery-sei / analysis-reuse-level=0 / analysis-save-reuse-level=0 / analysis-load-reuse-level=0 / scale-factor=0 / refine-intra=0 / refine-inter=0 / refine-mv=1 / refine-ctu-distortion=0 / no-limit-sao / ctu-info=0 / no-lowpass-dct / refine-analysis-type=0 / copy-pic=1 / max-ausize-factor=1.0 / no-dynamic-refine / no-single-sei / no-hevc-aq / no-svt / no-field / qp-adaptation-range=1.00 / no-scenecut-aware-qpconformance-window-offsets / right=0 / bottom=0
Default : Yes
Forced : No

Audio #1
ID : 2
Format : AAC LC
Format/Info : Advanced Audio Codec Low Complexity
Codec ID : A_AAC-2
Duration : 2 h 4 min
Bit rate : 224 kb/s
Channel(s) : 6 channels
Channel layout : C L R Ls Rs LFE
Sampling rate : 48.0 kHz
Frame rate : 46.875 FPS (1024 SPF)
Compression mode : Lossy
Delay relative to video : -43 ms
Stream size : 200 MiB (8%)
Language : English
Default : No
Forced : No

Audio #2
ID : 3
Format : AAC LC
Format/Info : Advanced Audio Codec Low Complexity
Codec ID : A_AAC-2
Duration : 2 h 4 min
Bit rate : 240 kb/s
Channel(s) : 6 channels
Channel layout : C L R Ls Rs LFE
Sampling rate : 48.0 kHz
Frame rate : 46.875 FPS (1024 SPF)
Compression mode : Lossy
Delay relative to video : 857 ms
Stream size : 214 MiB (8%)
Language : Spanish
Default : No
Forced : No

Audio #3
ID : 5
Format : AC-3
Format/Info : Audio Coding 3
Commercial name : Dolby Digital
Codec ID : A_AC3
Duration : 2 h 4 min
Bit rate mode : Constant
Bit rate : 448 kb/s
Channel(s) : 6 channels
Channel layout : L R C LFE Ls Rs
Sampling rate : 48.0 kHz
Frame rate : 31.250 FPS (1536 SPF)
Compression mode : Lossy
Delay relative to video : 857 ms
Stream size : 400 MiB (15%)
Language : Spanish
Service kind : Complete Main
Default : Yes
Forced : No

Text
ID : 4
Format : UTF-8
Codec ID : S_TEXT/UTF8
Codec ID/Info : UTF-8 Plain Text
Duration : 53 min 46 s
Bit rate : 4 b/s
Count of elements : 44
Stream size : 1.80 KiB (0%)
Language : Spanish
Default : Yes
Forced : Yes

Menu
00:00:00.000 : :00:00:00.000
00:00:21.104 : :00:00:21.021
00:01:53.571 : :00:01:53.405
00:04:57.380 : :00:04:52.792
00:07:28.364 : :00:07:28.281
00:08:57.077 : :00:08:54.868
00:11:21.555 : :00:11:21.389
00:15:40.355 : :00:15:40.231
00:19:41.222 : :00:19:40.179
00:23:33.287 : :00:23:33.203
00:25:32.697 : :00:25:32.614
00:27:45.580 : :00:27:45.497
00:29:12.792 : :00:29:12.709
00:32:34.202 : :00:32:34.077
00:34:53.091 : :00:34:53.008
00:36:54.420 : :00:36:54.212
00:39:15.769 : :00:39:05.635
00:41:52.385 : :00:41:42.291
00:42:31.715 : :00:42:31.549
00:44:54.567 : :00:44:51.731
00:48:00.461 : :00:47:52.620
00:49:58.829 : :00:49:57.995
00:51:13.862 : :00:51:13.696
00:52:49.499 : :00:52:40.741
00:54:12.540 : :00:54:12.332
00:56:59.999 : :00:56:59.916
00:59:14.300 : :00:59:14.176
01:03:13.038 : :01:03:10.829
01:06:16.555 : :01:06:16.472
01:08:22.056 : :01:08:21.973
01:12:32.598 : :01:12:32.390
01:14:12.740 : :01:14:12.657
01:17:13.796 : :01:17:13.712
01:19:10.746 : :01:19:09.328
01:21:29.468 : :01:21:29.384
01:25:00.303 : :01:25:00.220
01:27:02.175 : :01:27:02.092
01:29:56.265 : :01:29:56.182
01:33:50.207 : :01:33:48.456
01:36:39.960 : :01:36:39.877
01:38:10.259 : :01:38:06.756
01:39:37.637 : :01:39:37.513
01:41:25.162 : :01:41:24.996
01:42:37.484 : :01:42:37.401
01:45:02.713 : :01:45:02.630
01:49:45.245 : :01:49:42.785
01:55:18.995 : :01:55:18.912
01:57:47.602 : :01:57:47.394
01:58:28.684 : :01:58:28.518
02:00:14.707 : :02:00:14.499




Star Wars IV 1080p HEVC Trial Latino original 5.1


NOTA: USE EL AUDIO ORIGINAL Y LE AGREGUE LAS PISTAS FR, FL, LFE, SL Y SR DEL REDOBLAJE
NOTA 2: DEJE TAMBIÉN EL REDOBLAJE E INGLES



Star Wars IV 1080p HEVC Trial Latino original 5.1
Star Wars IV 1080p HEVC Trial Latino original 5.1

Star Wars IV 1080p HEVC Trial Latino original 5.1



Star Wars IV 1080p HEVC Trial Latino original 5.1

Si lo que encontraste en este Post te sirvió , no te olvides de agradecérselo al Uploader ;
Tu comentario y agradecimiento es su única recompensa y estimulo para seguir compartiendo.
Estadísticas
Creado 06.04.2023 a las 17:44 hs
Categoría Peliculas audio Latino
  • 0
    Medallas
  • 0
    Favoritos
  • 514
    Visitas
  • 3.5/10
    LPDLW score
  • 4
    Votantes
  • 35
    Puntos
  • 0
    Seguidores
  • 0
    Recomendado
Comentarios
11
Cargando comentarios espera un momento...

Para poder comentar necesitas ser un usuario registrado , ¡ Registrarme Ahora !. O.. ya tienes usuario? Logueate!
Creado por    RUEDAS
Ver perfil de RUEDAS RUEDAS
Hombre New Full User  Mensaje
213 4 94
Medallas ganadas por este Post
No tiene medallas
Punteadores
Tags
Posts relacionados
Mas Post de     RUEDAS
Términos y condiciones
Privacidad
Report - DMCA
Contacto
LoPeorDeLaWeb  © 2014 - 2024
Carga   0.532    Mls  
Basado en  PHPost 
Diseño de Kmario19
Adaptado por  jor51 
LoPeorDeLaWeb utiliza cookies. Lea nuestra Política de Privacidad para obtener más información. Para eliminar este mensaje, haga clic en el siguiente botón: Acepto el uso de cookies