Asesinato en el Expreso de Oriente 1080p Dual MG-ZP
Peliculas con audio Dual

Asesinato en el Expreso de Oriente 1080p Dual MG-ZP



Asesinato en el Expreso de Oriente (2017)



Asesinato en el Expreso de Oriente 1080p Dual MG-ZP



Asesinato en el Expreso de Oriente 1080p Dual MG-ZP



Durante un viaje en el legendario tren Orient Express, el detective belga Hercules Poirot investiga un asesinato cometido en el trayecto, y a resultas del cual todos los pasajeros del tren son sospechosos del mismo.


REPARTO
Kenneth Branagh, Penélope Cruz, Willem Dafoe, Judi Dench, Johnny Depp, Michelle Pfeiffer, Daisy Ridley, Josh Gad, Tom Bateman, Derek Jacobi, Manuel García-Rulfo, Leslie Odom Jr., Lucy Boynton, Sergei Polunin, Olivia Colman, Miranda Raison, Chico Kenzari, Ziad Abaza



Titulo original: Murder on the Orient Express (2017)
Titulo lat.: Asesinato en el Expreso de Oriente (2017)
Formato: MKV
Idioma 1: Ingles 5.1
Idioma 2: Latino 5.1
Subtitulos: Español
Subtitulos forzados: Español
Resolución: 1080p
Peso: 3.54 GiB
Duración: 1 h 53 min



contraseña: by_franckable




Asesinato en el Expreso de Oriente 1080p Dual MG-ZP




Complete name: Murder on the Orient Express (2017).mkv
Video
ID: 1
File size: 3.54 GiB
Duration: 1 h 53 min
Overall bit rate: 4 446 kb/s
Bit rate: 3 700 kb/s
Width: 1 920 pixels
Height: 800 pixels

Audio #1
ID : 2
Format: AC-3
Bit rate: 320 kb/s
Channel(s): 6 channels
Stream size: 261 MiB (7%)
Title: Audio Ingles

Audio #2
ID : 3
Format: AC-3
Bit rate: 448 kb/s
Channel(s): 6 channels
Stream size: 365 MiB (10%)
Title: Audio Latino

Text #1
ID : 4
Format: UTF-8
Bit rate: 69 b/s
Duration: 1 h 53 min
Count of elements: 1576
Stream size: 57.2 KiB (0%)
Language: Spanish

Text #2
ID : 5
Format: UTF-8
Bit rate: 0 b/s
Duration: 1 h 33 min
Count of elements: 24
Stream size: 559 Bytes (0%)
Language: Spanish




Asesinato en el Expreso de Oriente 1080p Dual MG-ZP



Asesinato en el Expreso de Oriente 1080p Dual MG-ZP

Asesinato en el Expreso de Oriente 1080p Dual MG-ZP

Asesinato en el Expreso de Oriente 1080p Dual MG-ZP

Asesinato en el Expreso de Oriente 1080p Dual MG-ZP

Asesinato en el Expreso de Oriente 1080p Dual MG-ZP




Asesinato en el Expreso de Oriente 1080p Dual MG-ZP



Asesinato en el Expreso de Oriente 1080p Dual MG-ZP



Para poder ver los links necesitas estar Registrado .
O.. ya tienes cuenta? Logueate!






Asesinato en el Expreso de Oriente 1080p Dual MG-ZP



Para poder ver los links necesitas estar Registrado .
O.. ya tienes cuenta? Logueate!







contraseña: by_franckable




Asesinato en el Expreso de Oriente 1080p Dual MG-ZP


Asesinato en el Expreso de Oriente 1080p Dual MG-ZP

Si lo que encontraste en este Post te sirvió , no te olvides de agradecérselo al Uploader ;
Tu comentario y agradecimiento es su única recompensa y estimulo para seguir compartiendo.
Estadísticas
Creado 19.06.2020 a las 16:06 hs
Categoría Peliculas con audio Dual
  • 0
    Medallas
  • 1
    Favoritos
  • 659
    Visitas
  • 5.5/10
    LPDLW score
  • 6
    Votantes
  • 52
    Puntos
  • 0
    Seguidores
  • 0
    Recomendado
Comentarios
10
Cargando comentarios espera un momento...

Para poder comentar necesitas ser un usuario registrado , ¡ Registrarme Ahora !. O.. ya tienes usuario? Logueate!
Creado por    franckable
Ver perfil de franckable franckable
Hombre Master  Mensaje
3,460 75 157
Medallas ganadas por este Post
No tiene medallas
Punteadores
Tags
Posts relacionados
Mas Post de     franckable
Términos y condiciones
Privacidad
Report - DMCA
Contacto
LoPeorDeLaWeb  © 2014 - 2024
Carga   1.306    Mls  
Basado en  PHPost 
Diseño de Kmario19
Adaptado por  jor51 
LoPeorDeLaWeb utiliza cookies. Lea nuestra Política de Privacidad para obtener más información. Para eliminar este mensaje, haga clic en el siguiente botón: Acepto el uso de cookies