El Gato - Dr Seuss (2003) Dual 1080p MG-ZP
Peliculas con audio Dual

El Gato - Dr Seuss (2003) Dual 1080p MG-ZP



El Gato (2003)

The Cat in the Hat (2003)

Dr. Seuss



El Gato - Dr Seuss (2003) Dual 1080p MG-ZP



El Gato - Dr Seuss (2003) Dual 1080p MG-ZP



Mike Myers protagoniza esta película en el papel del travieso visitante felino con sombrero que enseña a dos niños que "es divertido divertirse pero hay que saber cómo hacerlo". Dakota Fanning y Spencer Breslin encarnan a los dos niños que tienen el placer de presenciar la anárquica conducta del gato y su habilidad para divertirse desafiando las leyes de la gravedad. Kelly Preston hace el papel de la madre y Alec Baldwin es Lawrence Quinn, el vecino que aspira a convertirse en padrastro de los niños, para desesperación de éstos.


REPARTO
Mike Myers, Alec Baldwin, Kelly Preston, Dakota Fanning, Spencer Breslin, Amy Hill, Sean Hayes, Danielle Chuchran, Taylor Rice, Brittany Oaks, Paris Hilton



Titulo original: The Cat in the Hat (2003)
Titulo lat.: El Gato (2003)
Formato: MKV
Idioma 1: Ingles 5.1
Idioma 2: Latino 2.0
Subtitulos: Español
Resolución: 1080p
Peso: 3.13 GiB
Duración: 1 h 21 min



contraseña: by_franckable




El Gato - Dr Seuss (2003) Dual 1080p MG-ZP




Complete name: El Gato - Dr. Seuss - The Cat in the Hat (2003).mkv
Video
ID: 1
File size: 3.13 GiB
Duration: 1 h 21 min
Overall bit rate: 5 473 kb/s
Bit rate: 4 896 kb/s
Width: 1 920 pixels
Height: 1 080 pixels

Audio #1
ID : 2
Format: AAC LC
Bit rate: 320 kb/s
Channel(s): 6 channels
Stream size: 187 MiB (6%)
Title: Audio Ingles

Audio #2
ID : 3
Format: AC-3
Bit rate: 256 kb/s
Channel(s): 2 channels
Stream size: 150 MiB (5%)
Title: Audio Latino

Text #1
ID : 4
Format: UTF-8
Bit rate: 76 b/s
Duration: 1 h 14 min
Count of elements: 1091
Stream size: 41.5 KiB (0%)
Language: Spanish




El Gato - Dr Seuss (2003) Dual 1080p MG-ZP



El Gato - Dr Seuss (2003) Dual 1080p MG-ZP

El Gato - Dr Seuss (2003) Dual 1080p MG-ZP

El Gato - Dr Seuss (2003) Dual 1080p MG-ZP

El Gato - Dr Seuss (2003) Dual 1080p MG-ZP

El Gato - Dr Seuss (2003) Dual 1080p MG-ZP




El Gato - Dr Seuss (2003) Dual 1080p MG-ZP



El Gato - Dr Seuss (2003) Dual 1080p MG-ZP



Para poder ver los links necesitas estar Registrado .
O.. ya tienes cuenta? Logueate!






El Gato - Dr Seuss (2003) Dual 1080p MG-ZP



Para poder ver los links necesitas estar Registrado .
O.. ya tienes cuenta? Logueate!







contraseña: by_franckable




El Gato - Dr Seuss (2003) Dual 1080p MG-ZP


El Gato - Dr Seuss (2003) Dual 1080p MG-ZP

Si lo que encontraste en este Post te sirvió , no te olvides de agradecérselo al Uploader ;
Tu comentario y agradecimiento es su única recompensa y estimulo para seguir compartiendo.
Estadísticas
Creado 19.06.2020 a las 15:34 hs
Categoría Peliculas con audio Dual
  • 1
    Medallas
  • 0
    Favoritos
  • 1734
    Visitas
  • 1/10
    LPDLW score
  • 2
    Votantes
  • 10
    Puntos
  • 0
    Seguidores
  • 0
    Recomendado
Comentarios
2
Cargando comentarios espera un momento...

Para poder comentar necesitas ser un usuario registrado , ¡ Registrarme Ahora !. O.. ya tienes usuario? Logueate!
Creado por    franckable
Ver perfil de franckable franckable
Hombre Master  Mensaje
3,460 75 157
Medallas ganadas por este Post
1
Punteadores
Tags
Posts relacionados
Mas Post de     franckable
Términos y condiciones
Privacidad
Report - DMCA
Contacto
LoPeorDeLaWeb  © 2014 - 2024
Carga   0.721    Mls  
Basado en  PHPost 
Diseño de Kmario19
Adaptado por  jor51 
LoPeorDeLaWeb utiliza cookies. Lea nuestra Política de Privacidad para obtener más información. Para eliminar este mensaje, haga clic en el siguiente botón: Acepto el uso de cookies