Registrate para interactuar con gatochalado

Winchester '73 (1950) [Western] [Latino] [MEGA]
Peliculas audio Latino

Winchester '73 (1950) [Western] [Latino] [MEGA]


Película Western de 1950, con James Stewart



Winchester '73 (1950) [Western] [Latino] [MEGA]


Winchester '73 (1950) [Western] [Latino] [MEGA]


Título original: Winchester '73
Año: 1950
Duración: 92 min.
País: Estados Unidos Estados Unidos
Dirección: Anthony Mann
Guion: Robert L. Richards, Borden Chase
Música: Frank Skinner
Fotografía: William H. Daniels (B&W)
Reparto: James Stewart, Shelley Winters, Dan Duryea, Stephen McNally, Charles Drake, Millard Mitchell, John McIntire, Jay C. Flippen, Will Geer, Rock Hudson, Tony Curtis
Productora: Universal Pictures
Género: Western | Venganza. Amistad. Familia

Sinopsis: Dos jinetes llegan a Dodge City persiguiendo a un hombre. Es el Día de la Independencia, y la gente se arremolina en torno al premio del concurso de tiro, un rifle único: el Winchester 73. Lin McAdam, uno de los forasteros, gana el concurso, pero uno de sus contrincantes se lo roba y huye. El rifle va pasando de mano en mano: de un traficante de armas a un jefe indio y después a un forajido. Mientras tanto, continúa la persecución. (FILMAFFINITY)


Winchester '73 (1950) [Western] [Latino] [MEGA]


General
Format : Matroska
File size : 2.73 GiB
Duration : 1h 28mn
Overall bit rate : 4 409 Kbps
Encoded date : UTC 2018-10-25 14:49:39
Writing application : mkvmerge v10.0.0 ('To Drown In You') 32bit
Writing library : libebml v1.3.4 + libmatroska v1.4.5

Video
ID : 1
Format : AVC
Format/Info : Advanced Video Codec
Format profile : [email protected]
Format settings, CABAC : No
Format settings, ReFrames : 2 frames
Codec ID : V_MPEG4/ISO/AVC
Duration : 1h 28mn
Bit rate : 4 130 Kbps
Width : 976 pixels
Height : 720 pixels
Display aspect ratio : 4:3
Frame rate : 25.000 fps
Color space : YUV
Chroma subsampling : 4:2:0
Bit depth : 8 bits
Scan type : Progressive
Bits/(Pixel*Frame) : 0.235
Stream size : 2.56 GiB (94%)
Title : Winchester.73.1950.720p.WEB-DL.AAC2.0.H.264-ViGi
Language : English
Color primaries : BT.709-5, BT.1361, IEC 61966-2-4, SMPTE RP177
Transfer characteristics : BT.709-5, BT.1361
Matrix coefficients : BT.709-5, BT.1361, IEC 61966-2-4 709, SMPTE RP177

Audio
ID : 2
Format : AC-3
Format/Info : Audio Coding 3
Mode extension : CM (complete main)
Codec ID : A_AC3
Duration : 1h 28mn
Bit rate mode : Constant
Bit rate : 192 Kbps
Channel(s) : 2 channels
Channel positions : Front: L R
Sampling rate : 48.0 KHz
Bit depth : 16 bits
Compression mode : Lossy
Delay relative to video : 300ms
Stream size : 122 MiB (4%)




Winchester '73 (1950) [Western] [Latino] [MEGA]
Winchester '73 (1950) [Western] [Latino] [MEGA]

Winchester '73 (1950) [Western] [Latino] [MEGA]



Para poder ver los links necesitas estar Registrado .
O.. ya tienes cuenta? Logueate!




Winchester '73 (1950) [Western] [Latino] [MEGA]

Si lo que encontraste en este Post te sirvió , no te olvides de agradecérselo al Uploader ;
Tu comentario y agradecimiento es su única recompensa y estimulo para seguir compartiendo.
Estadísticas
Creado 27.10.2018 a las 01:04 hs
Categoría Peliculas audio Latino
  • 0
    Medallas
  • 0
    Favoritos
  • 142
    Visitas
  • 8/10
    LPDLW score
  • 10
    Votantes
  • 80
    Puntos
  • 0
    Seguidores
  • 0
    Recomendado
Comentarios
12
Cargando comentarios espera un momento...

Para poder comentar necesitas ser un usuario registrado , ¡ Registrarme Ahora !. O.. ya tienes usuario? Logueate!
Creado por    gatochalado
Ver perfil de gatochalado gatochalado
Hombre New Full User  Mensaje
311 5 13
Medallas ganadas por este Post
No tiene medallas
Punteadores
Tags
Posts relacionados
Mas Post de     gatochalado
Términos y condiciones
Privacidad
Report - DMCA
Contacto
LoPeorDeLaWeb  © 2014 - 2018
Carga   0.915    Mls  
Basado en  PHPost 
Diseño de Kmario19
Adaptado por  jor51