Registrate para interactuar con gatochalado

El Pistolero Invencible (1956) [Western] [Latino] [MEGA]
Peliculas audio Latino

El Pistolero Invencible (1956) [Western] [Latino] [MEGA]


Película Western de 1956, con Glenn Ford



El Pistolero Invencible (1956) [Western] [Latino] [MEGA]


El Pistolero Invencible (1956) [Western] [Latino] [MEGA]


Título original: The Fastest Gun Alive
Año: 1956
Duración: 89 min.
País: Estados Unidos Estados Unidos
Dirección: Russell Rouse
Guion: Frank D. Gilroy, Russell Rouse (Historia: Frank D. Gilroy)
Música: André Previn
Fotografía: George J. Folsey (B&W)
Reparto: Glenn Ford, Jeanne Crain, Broderick Crawford, Russ Tamblyn, Allyn Joslyn, Leif Erickson, John Dehner, Noah Beery Jr., J.M. Kerrigan, Rhys Williams
Productora: MGM
Género: Western
Sinopsis: Un hombre pacífico y abstemio (Glenn Ford) es el propietario de un modesto almacén en un pequeño pueblo del Oeste. Aunque, por su carácter, casi todos lo admiran, el hecho de ir desarmado es para algunos motivo de desprecio. (FILMAFFINITY)


El Pistolero Invencible (1956) [Western] [Latino] [MEGA]


General
Format : Matroska
File size : 930 MiB
Duration : 1h 29mn
Overall bit rate : 1 457 Kbps
Encoded date : UTC 2018-10-05 04:42:36
Writing application : mkvmerge v10.0.0 ('To Drown In You') 32bit
Writing library : libebml v1.3.4 + libmatroska v1.4.5

Video
ID : 1
Format : AVC
Format/Info : Advanced Video Codec
Format profile : [email protected]
Format settings, CABAC : Yes
Format settings, ReFrames : 5 frames
Codec ID : V_MPEG4/ISO/AVC
Duration : 1h 29mn
Bit rate : 1 236 Kbps
Width : 720 pixels
Height : 392 pixels
Display aspect ratio : 16:9
Frame rate : 23.976 fps
Color space : YUV
Chroma subsampling : 4:2:0
Bit depth : 8 bits
Scan type : Progressive
Bits/(Pixel*Frame) : 0.183
Stream size : 789 MiB (85%)
Writing library : x264 core 148 r2762 90a61ec

Audio
ID : 2
Format : MPEG Audio
Format version : Version 1
Format profile : Layer 3
Mode : Joint stereo
Codec ID : A_MPEG/L3
Codec ID/Hint : MP3
Duration : 1h 29mn
Bit rate mode : Constant
Bit rate : 192 Kbps
Channel(s) : 2 channels
Sampling rate : 44.1 KHz
Compression mode : Lossy
Stream size : 123 MiB (13%)



El Pistolero Invencible (1956) [Western] [Latino] [MEGA]
El Pistolero Invencible (1956) [Western] [Latino] [MEGA]

El Pistolero Invencible (1956) [Western] [Latino] [MEGA]



El Pistolero Invencible (1956) [Western] [Latino] [MEGA]

Si lo que encontraste en este Post te sirvió , no te olvides de agradecérselo al Uploader ;
Tu comentario y agradecimiento es su única recompensa y estimulo para seguir compartiendo.
Estadísticas
Creado 20.10.2018 a las 12:07 hs
Categoría Peliculas audio Latino
  • 0
    Medallas
  • 0
    Favoritos
  • 119
    Visitas
  • 6.5/10
    LPDLW score
  • 6
    Votantes
  • 65
    Puntos
  • 0
    Seguidores
  • 0
    Recomendado
Comentarios
9
Cargando comentarios espera un momento...

Para poder comentar necesitas ser un usuario registrado , ¡ Registrarme Ahora !. O.. ya tienes usuario? Logueate!
Creado por    gatochalado
Ver perfil de gatochalado gatochalado
Hombre New Full User  Mensaje
311 5 13
Medallas ganadas por este Post
No tiene medallas
Punteadores
Tags
Posts relacionados
Mas Post de     gatochalado
Términos y condiciones
Privacidad
Report - DMCA
Contacto
LoPeorDeLaWeb  © 2014 - 2018
Carga   1.220    Mls  
Basado en  PHPost 
Diseño de Kmario19
Adaptado por  jor51