Registrate para interactuar con EmaMedina

La sociedad literaria y el pastel de piel de patata [2018]
Peliculas audio Latino

La sociedad literaria y el pastel de piel de patata [2018]

La sociedad literaria y el pastel de piel de patata [2018]

En 1946 una escritora de espíritu libre, Juliet Ashton, establece una amistad con los residentes de Guernsey Island tras la Segunda Guerra Mundial, y decide escribir un libro sobre sus experiencias durante la guerra.

La sociedad literaria y el pastel de piel de patata [2018]

Para poder ver los links necesitas estar Registrado .
O.. ya tienes cuenta? Logueate!


La sociedad literaria y el pastel de piel de patata [2018]

Título original: The Guernsey Literary and Potato Peel Pie Society
Año: 2018
Duración: 123 min.
País: Reino Unido Reino Unido
Dirección: Mike Newell
Guion: Thomas Bezucha, Don Roos (Novela: Annie Barrows, Mary Ann Shaffer)
Música: Alexandra Harwood
Fotografía: Zac Nicholson
Reparto: Lily James, Michiel Huisman, Glen Powell, Jessica Brown Findlay, Matthew Goode, Tom Courtenay, Penelope Wilton, Tim Ingall, Katherine Parkinson, Kit Connor, Dilyana Bouklieva, Andy Gathergood, Marek Oravec
Productora: Emitida por Netflix; Blueprint Pictures / Paula Mazur / Mazur / Kaplan Company
Género: Drama. Romance | Años 40

La sociedad literaria y el pastel de piel de patata [2018]

General
Unique ID                   : 233008973766346385651649219276468348997 (0xAF4BE55F84DEC25FBF6CFF8B87276845)
Complete name               : La sociedad literaria y el pastel de piel de patata [1080p][Latino].mkv
Format                      : Matroska
Format version              : Version 4 / Version 2
File size                   : 4.70 GiB
Duration                    : 2 h 3 min
Overall bit rate mode       : Variable
Overall bit rate            : 5 432 kb/s
Encoded date                : UTC 2018-08-10 13:33:42
Writing application         : mkvmerge v6.4.1 ('Omega Point') built on Sep 16 2013 22:05:10
Writing library             : libebml v1.3.0 + libmatroska v1.4.1

Video
ID                          : 1
Format                      : AVC
Format/Info                 : Advanced Video Codec
Format profile              : [email protected]
Format settings             : CABAC / 3 Ref Frames
Format settings, CABAC      : Yes
Format settings, RefFrames  : 3 frames
Codec ID                    : V_MPEG4/ISO/AVC
Duration                    : 2 h 3 min
Bit rate mode               : Variable
Bit rate                    : 4 870 kb/s
Maximum bit rate            : 7 305 kb/s
Width                       : 1 920 pixels
Height                      : 1 080 pixels
Display aspect ratio        : 16:9
Frame rate mode             : Constant
Frame rate                  : 24.000 FPS
Color space                 : YUV
Chroma subsampling          : 4:2:0
Bit depth                   : 8 bits
Scan type                   : Progressive
Bits/(Pixel*Frame)          : 0.098
Stream size                 : 4.06 GiB (86%)
Writing library             : x264 core 148 r2715 7e75228
Encoding settings           : cabac=1 / ref=3 / deblock=1:0:0 / analyse=0x1:0x111 / me=umh / subme=10 / psy=1 / psy_rd=1.00:0.00 / mixed_ref=1 / me_range=24 / chroma_me=1 / trellis=2 / 8x8dct=0 / cqm=0 / deadzone=21,11 / fast_pskip=1 / chroma_qp_offset=-2 / threads=8 / lookahead_threads=1 / sliced_threads=0 / nr=0 / decimate=1 / interlaced=0 / bluray_compat=0 / stitchable=1 / constrained_intra=0 / bframes=2 / b_pyramid=0 / b_adapt=2 / b_bias=0 / direct=3 / weightb=1 / open_gop=0 / weightp=2 / keyint=48 / keyint_min=25 / scenecut=0 / intra_refresh=0 / rc_lookahead=48 / rc=2pass / mbtree=1 / bitrate=4870 / ratetol=1.0 / qcomp=0.50 / qpmin=6 / qpmax=51 / qpstep=4 / cplxblur=20.0 / qblur=0.5 / vbv_maxrate=7305 / vbv_bufsize=9740 / nal_hrd=vbr / filler=0 / ip_ratio=1.40 / aq=1:1.00
Default                     : Yes
Forced                      : No

Audio
ID                          : 2
Format                      : E-AC-3
Format/Info                 : Enhanced Audio Coding 3
Format settings, Endianness : Big
Codec ID                    : A_EAC3
Duration                    : 2 h 3 min
Bit rate mode               : Constant
Bit rate                    : 640 kb/s
Channel(s)                  : 6 channels
Channel positions           : Front: L C R, Side: L R, LFE
Sampling rate               : 48.0 kHz
Frame rate                  : 187.500 FPS (256 SPF)
Compression mode            : Lossy
Stream size                 : 568 MiB (12%)
Language                    : Spanish
Service kind                : Complete Main
Default                     : No
Forced                      : No

La sociedad literaria y el pastel de piel de patata [2018]

La sociedad literaria y el pastel de piel de patata [2018]

La sociedad literaria y el pastel de piel de patata [2018]

Enlaces intercambiables
Para poder ver los links necesitas estar Registrado .
O.. ya tienes cuenta? Logueate!

Para poder ver los links necesitas estar Registrado .
O.. ya tienes cuenta? Logueate!

Para poder ver los links necesitas estar Registrado .
O.. ya tienes cuenta? Logueate!

Para poder ver los links necesitas estar Registrado .
O.. ya tienes cuenta? Logueate!

Para poder ver los links necesitas estar Registrado .
O.. ya tienes cuenta? Logueate!

Un link sin comprimir[url]
]http://userscloud.com/hlwqcm6v0i4q[/align][/url]

Si lo que encontraste en este Post te sirvió , no te olvides de agradecérselo al Uploader ;
Tu comentario y agradecimiento es su única recompensa y estimulo para seguir compartiendo.
Estadísticas
Creado 05.09.2018 a las 16:29 hs
Categoría Peliculas audio Latino
  • 1
    Medallas
  • 0
    Favoritos
  • 59
    Visitas
  • 4/10
    LPDLW score
  • 4
    Votantes
  • 40
    Puntos
  • 0
    Seguidores
  • 0
    Recomendado
Comentarios
3
Cargando comentarios espera un momento...

Para poder comentar necesitas ser un usuario registrado , ¡ Registrarme Ahora !. O.. ya tienes usuario? Logueate!
Creado por    EmaMedina
Ver perfil de EmaMedina EmaMedina
Hombre New Full User  Mensaje
260 14 0
Medallas ganadas por este Post
1
Punteadores
Tags
Posts relacionados
Mas Post de     EmaMedina
Términos y condiciones
Privacidad
Report - DMCA
Contacto
LoPeorDeLaWeb  © 2014 - 2018
Carga   1.948    Mls  
Basado en  PHPost 
Diseño de Kmario19
Adaptado por  jor51