Registrate para interactuar con EmaMedina

Pura sangre [2017] [Latino] [1080p] [Un link]
Peliculas audio Latino

Pura sangre [2017] [Latino] [1080p] [Un link]

Pura sangre [2017] [Latino] [1080p] [Un link]

Dos chicas adolescentes de Connecticut reavivan su amistad después de años separadas. En el proceso, aprenden que no todo es lo que parece y que un asesinato solucionaría sus problemas.

Pura sangre [2017] [Latino] [1080p] [Un link]

Para poder ver los links necesitas estar Registrado .
O.. ya tienes cuenta? Logueate!


Pura sangre [2017] [Latino] [1080p] [Un link]

Título original: Thoroughbreds
Año: 2017
Duración: 90 min.
País: Estados Unidos Estados Unidos
Dirección: Cory Finley
Guion: Cory Finley
Música: Erik Friedlander
Fotografía: Lyle Vincent
Reparto: Anya Taylor-Joy, Olivia Cooke, Anton Yelchin, Kaili Vernoff, Stephanie Atkinson, Daniel Martignetti, Paul Sparks, Francie Swift, Svetlana Orlova, Alyssa Fishenden
Productora: B Story / June Pictures / Big Indie Pictures. Distribuida por Focus Audiovisuals
Género: Thriller. Drama | Cine independiente USA. Comedia negra. Amistad. Adolescencia

Pura sangre [2017] [Latino] [1080p] [Un link]

General
Unique ID                   : 200022620408172391711872866496623171829 (0x967AF49665DDC601B8613D0A14AC58F5)
Complete name               : Thoroughbreds [1080p][Latino].mkv
Format                      : Matroska
Format version              : Version 4 / Version 2
File size                   : 3.09 GiB
Duration                    : 1 h 32 min
Overall bit rate            : 4 806 kb/s
Encoded date                : UTC 2018-05-22 14:09:44
Writing application         : mkvmerge v6.4.1 ('Omega Point') built on Sep 16 2013 22:05:10
Writing library             : libebml v1.3.0 + libmatroska v1.4.1

Video
ID                          : 1
Format                      : AVC
Format/Info                 : Advanced Video Codec
Format profile              : [email protected]
Format settings             : CABAC / 5 Ref Frames
Format settings, CABAC      : Yes
Format settings, RefFrames  : 5 frames
Codec ID                    : V_MPEG4/ISO/AVC
Duration                    : 1 h 32 min
Bit rate                    : 4 455 kb/s
Width                       : 1 916 pixels
Height                      : 800 pixels
Display aspect ratio        : 2.40:1
Frame rate mode             : Constant
Frame rate                  : 23.976 (24000/1001) FPS
Color space                 : YUV
Chroma subsampling          : 4:2:0
Bit depth                   : 8 bits
Scan type                   : Progressive
Bits/(Pixel*Frame)          : 0.121
Stream size                 : 2.87 GiB (93%)
Language                    : English
Default                     : Yes
Forced                      : No
Color range                 : Limited
Color primaries             : BT.709
Transfer characteristics    : BT.709
Matrix coefficients         : BT.709

Audio
ID                          : 2
Format                      : AC-3
Format/Info                 : Audio Coding 3
Format settings, Endianness : Big
Codec ID                    : A_AC3
Duration                    : 1 h 32 min
Bit rate mode               : Constant
Bit rate                    : 256 kb/s
Channel(s)                  : 2 channels
Channel positions           : Front: L R
Sampling rate               : 48.0 kHz
Frame rate                  : 31.250 FPS (1536 SPF)
Bit depth                   : 16 bits
Compression mode            : Lossy
Stream size                 : 169 MiB (5%)
Language                    : Spanish
Service kind                : Complete Main
Default                     : Yes
Forced                      : No

Pura sangre [2017] [Latino] [1080p] [Un link]

Pura sangre [2017] [Latino] [1080p] [Un link]

Pura sangre [2017] [Latino] [1080p] [Un link]

Enlaces intercambiables

Para poder ver los links necesitas estar Registrado .
O.. ya tienes cuenta? Logueate!

Para poder ver los links necesitas estar Registrado .
O.. ya tienes cuenta? Logueate!

Para poder ver los links necesitas estar Registrado .
O.. ya tienes cuenta? Logueate!

Para poder ver los links necesitas estar Registrado .
O.. ya tienes cuenta? Logueate!


Un link sin comprimir

Para poder ver los links necesitas estar Registrado .
O.. ya tienes cuenta? Logueate!

Si lo que encontraste en este Post te sirvió , no te olvides de agradecérselo al Uploader ;
Tu comentario y agradecimiento es su única recompensa y estimulo para seguir compartiendo.
Estadísticas
Creado 03.09.2018 a las 19:25 hs
Categoría Peliculas audio Latino
  • 0
    Medallas
  • 0
    Favoritos
  • 117
    Visitas
  • 3/10
    LPDLW score
  • 3
    Votantes
  • 30
    Puntos
  • 0
    Seguidores
  • 0
    Recomendado
Comentarios
5
Cargando comentarios espera un momento...

Para poder comentar necesitas ser un usuario registrado , ¡ Registrarme Ahora !. O.. ya tienes usuario? Logueate!
Creado por    EmaMedina
Ver perfil de EmaMedina EmaMedina
Hombre New Full User  Mensaje
264 14 1
Medallas ganadas por este Post
No tiene medallas
Punteadores
Tags
Posts relacionados
Mas Post de     EmaMedina
Términos y condiciones
Privacidad
Report - DMCA
Contacto
LoPeorDeLaWeb  © 2014 - 2018
Carga   2.023    Mls  
Basado en  PHPost 
Diseño de Kmario19
Adaptado por  jor51