Registrate para interactuar con EmaMedina

Ya Veremos [2018] [Latino] [CAM] [Un link]
Peliculas audio Latino

Ya Veremos [2018] [Latino] [CAM] [Un link]

Ya Veremos [2018] [Latino] [CAM] [Un link]

Santi (Emiliano Aramayo) es un nin?o que ha tenido que lidiar con la separacio?n de sus padres, Rodrigo (Mauricio Ochmann) y Alejandra (Fernanda Castillo). Ellos esta?n obligados a verse de vez en cuando, ya que, comparten el tiempo de su hijo. Un di?a reciben la noticia de que Santi debe someterse a una cirugi?a para no perder la vista, asi? que éste hace una lista de deseos para cumplirlos junto con sus dos padres, antes de la operacio?n. Rodrigo y Alejandra deberán aprender a convivir, embarca?ndose (sin sospecharlo) en un viaje que al final, hará que sea muy difi?cil separarse de nuevo.

Ya Veremos [2018] [Latino] [CAM] [Un link]

Para poder ver los links necesitas estar Registrado .
O.. ya tienes cuenta? Logueate!


Ya Veremos [2018] [Latino] [CAM] [Un link]

Título original: Ya veremos
Año: 2018
Duración: 97 min.
País: México México
Dirección: Pedro Pablo Ibarra
Guion: Alberto Bremer
Música: Manuel Riveiro
Fotografía: Martín Boege
Reparto: Fernanda Castillo, Mauricio Ochmann, Erik Hayser, Emiliano Aramayo, Estefanía Ahumada, Miguel Alvarez, Ariel Levy, Arturo Barba, Marianna Burelli, Miguel Pérez Gil, Jorge Caballero, Rodrigo Cachero, Katsuhiro Honda, Camila Ibarra, Ernesto Loera, Denisse Prieto, Luisito Rey, Paco Rueda, Gumercindo Saguilan, Angella Tomato
Productora: Videocine / Bh5 Group / Sobras International Pictures / A Toda Madre Entertainment
Género: Comedia. Drama | Discapacidad. Comedia dramática. Melodrama. Familia

Ya Veremos [2018] [Latino] [CAM] [Un link]

General
Complete name               : Ya Veremos [CAM][Latino].avi
Format                      : AVI
Format/Info                 : Audio Video Interleave
File size                   : 1.31 GiB
Duration                    : 1 h 21 min
Overall bit rate            : 2 299 kb/s
Writing application         : VirtualDubMod 1.5.10.2 (build 2540/release)
Writing library             : VirtualDubMod build 2540/release

Video
ID                          : 0
Format                      : AVC
Format/Info                 : Advanced Video Codec
Format profile              : [email protected]
Format settings             : CABAC / 2 Ref Frames
Format settings, CABAC      : Yes
Format settings, RefFrames  : 2 frames
Codec ID                    : H264
Duration                    : 1 h 21 min
Bit rate                    : 2 097 kb/s
Width                       : 720 pixels
Height                      : 356 pixels
Display aspect ratio        : 2.022
Frame rate                  : 23.976 (24000/1001) FPS
Color space                 : YUV
Chroma subsampling          : 4:2:0
Bit depth                   : 8 bits
Scan type                   : Progressive
Bits/(Pixel*Frame)          : 0.341
Stream size                 : 1.20 GiB (91%)
Writing library             : x264 core
Color range                 : Limited
Color primaries             : BT.601 NTSC
Transfer characteristics    : BT.709
Matrix coefficients         : BT.601

Audio
ID                          : 1
Format                      : MPEG Audio
Format version              : Version 1
Format profile              : Layer 3
Format settings             : Joint stereo / MS Stereo
Mode                        : Joint stereo
Mode extension              : MS Stereo
Codec ID                    : 55
Codec ID/Hint               : MP3
Duration                    : 1 h 21 min
Bit rate mode               : Constant
Bit rate                    : 192 kb/s
Channel(s)                  : 2 channels
Sampling rate               : 48.0 kHz
Compression mode            : Lossy
Stream size                 : 112 MiB (8%)
Alignment                   : Split accross interleaves
Interleave, duration        : 42  ms (1.00 video frame)
Interleave, preload duratio : 500  ms

Ya Veremos [2018] [Latino] [CAM] [Un link]

Ya Veremos [2018] [Latino] [CAM] [Un link]

Ya Veremos [2018] [Latino] [CAM] [Un link]

Enlaces intercambiables

Para poder ver los links necesitas estar Registrado .
O.. ya tienes cuenta? Logueate!

Para poder ver los links necesitas estar Registrado .
O.. ya tienes cuenta? Logueate!


Un link sin comprimir

Para poder ver los links necesitas estar Registrado .
O.. ya tienes cuenta? Logueate!

Si lo que encontraste en este Post te sirvió , no te olvides de agradecérselo al Uploader ;
Tu comentario y agradecimiento es su única recompensa y estimulo para seguir compartiendo.
Estadísticas
Creado 03.09.2018 a las 19:08 hs
Categoría Peliculas audio Latino
  • 0
    Medallas
  • 0
    Favoritos
  • 106
    Visitas
  • 1/10
    LPDLW score
  • 1
    Votantes
  • 10
    Puntos
  • 0
    Seguidores
  • 0
    Recomendado
Comentarios
0
Cargando comentarios espera un momento...

Para poder comentar necesitas ser un usuario registrado , ¡ Registrarme Ahora !. O.. ya tienes usuario? Logueate!
Creado por    EmaMedina
Ver perfil de EmaMedina EmaMedina
Hombre New Full User  Mensaje
264 14 1
Medallas ganadas por este Post
No tiene medallas
Punteadores
Tags
Posts relacionados
Mas Post de     EmaMedina
Términos y condiciones
Privacidad
Report - DMCA
Contacto
LoPeorDeLaWeb  © 2014 - 2018
Carga   1.460    Mls  
Basado en  PHPost 
Diseño de Kmario19
Adaptado por  jor51