Registrate para interactuar con EmaMedina

Teenn Titans Go [2018] [Latino] [HDTC] [Un link]
Peliculas audio Latino

Teenn Titans Go [2018] [Latino] [HDTC] [Un link]

Teenn Titans Go [2018] [Latino] [HDTC] [Un link]

Cuando los Jóvenes Titanes se enteran de que otros superhéroes de DC han realizado sus propias películas, estos buscaran encontrar en un viaje épico un director perfecto para su debut en la gran pantalla, pero un viejo enemigo tiene otras ideas planeadas para ellos.

Teenn Titans Go [2018] [Latino] [HDTC] [Un link]

Para poder ver los links necesitas estar Registrado .
O.. ya tienes cuenta? Logueate!


Teenn Titans Go [2018] [Latino] [HDTC] [Un link]

Título original: Teen Titans Go! To the Movies aka
Año: 2018
Duración: 87 min.
País: Estados Unidos Estados Unidos
Dirección: Aaron Horvath, Peter Rida Michail
Guion: Aaron Horvath, Michael Jelenic
Música: Jason Nesmith
Fotografía: Animation
Reparto: Animation
Productora: DC Entertainment / Warner Bros. Animation / Warner Bros. / Cartoon Network / Warner Animation Group
Género: Animación. Acción. Comedia | Superhéroes. Cómic. DC Comics. Sátira. Cine dentro del cine

Teenn Titans Go [2018] [Latino] [HDTC] [Un link]

General
Complete name               : Teenn Titans Go [HDTC][Latino].avi
Format                      : AVI
Format/Info                 : Audio Video Interleave
Format profile              : OpenDML
File size                   : 1.51 GiB
Duration                    : 1 h 24 min
Overall bit rate            : 2 559 kb/s
Movie name                  : T33n.T1it4ns.G0.2018.(HDTC).(Latino)
Writing application         : Lavf54.63.104
Original source form/Name   : SAGAS

Video
ID                          : 0
Format                      : AVC
Format/Info                 : Advanced Video Codec
Format profile              : [email protected]
Format settings             : CABAC / 1 Ref Frames
Format settings, CABAC      : Yes
Format settings, RefFrames  : 1 frame
Codec ID                    : H264
Duration                    : 1 h 24 min
Bit rate                    : 2 099 kb/s
Width                       : 720 pixels
Height                      : 364 pixels
Display aspect ratio        : 1.978
Frame rate                  : 23.976 (24000/1001) FPS
Color space                 : YUV
Chroma subsampling          : 4:2:0
Bit depth                   : 8 bits
Scan type                   : Progressive
Bits/(Pixel*Frame)          : 0.334
Stream size                 : 1.24 GiB (82%)
Writing library             : x264 core
Color range                 : Limited
Color primaries             : BT.601 NTSC
Transfer characteristics    : BT.709
Matrix coefficients         : BT.601

Audio
ID                          : 1
Format                      : AC-3
Format/Info                 : Audio Coding 3
Format settings, Endianness : Big
Codec ID                    : 2000
Duration                    : 1 h 24 min
Bit rate mode               : Constant
Bit rate                    : 448 kb/s
Channel(s)                  : 6 channels
Channel positions           : Front: L C R, Side: L R, LFE
Sampling rate               : 48.0 kHz
Frame rate                  : 31.250 FPS (1536 SPF)
Bit depth                   : 16 bits
Compression mode            : Lossy
Stream size                 : 270 MiB (18%)
Alignment                   : Aligned on interleaves
Interleave, duration        : 32  ms (0.77 video frame)
Service kind                : Complete Main

Teenn Titans Go [2018] [Latino] [HDTC] [Un link]

Teenn Titans Go [2018] [Latino] [HDTC] [Un link]

Teenn Titans Go [2018] [Latino] [HDTC] [Un link]

Enlaces intercambiables

Para poder ver los links necesitas estar Registrado .
O.. ya tienes cuenta? Logueate!

Para poder ver los links necesitas estar Registrado .
O.. ya tienes cuenta? Logueate!


Un link sin comprimir

Para poder ver los links necesitas estar Registrado .
O.. ya tienes cuenta? Logueate!

Si lo que encontraste en este Post te sirvió , no te olvides de agradecérselo al Uploader ;
Tu comentario y agradecimiento es su única recompensa y estimulo para seguir compartiendo.
Estadísticas
Creado 03.09.2018 a las 18:30 hs
Categoría Peliculas audio Latino
  • 2
    Medallas
  • 0
    Favoritos
  • 110
    Visitas
  • 2/10
    LPDLW score
  • 2
    Votantes
  • 20
    Puntos
  • 0
    Seguidores
  • 0
    Recomendado
Comentarios
3
Cargando comentarios espera un momento...

Para poder comentar necesitas ser un usuario registrado , ¡ Registrarme Ahora !. O.. ya tienes usuario? Logueate!
Creado por    EmaMedina
Ver perfil de EmaMedina EmaMedina
Hombre New Full User  Mensaje
260 14 0
Medallas ganadas por este Post
2
Punteadores
Tags
Posts relacionados
Mas Post de     EmaMedina
Términos y condiciones
Privacidad
Report - DMCA
Contacto
LoPeorDeLaWeb  © 2014 - 2018
Carga   1.712    Mls  
Basado en  PHPost 
Diseño de Kmario19
Adaptado por  jor51