Registrate para interactuar con EmaMedina

Criaturas nocturnas [2018] [Latino] [BRScr] [Un link]
Peliculas audio Latino

Criaturas nocturnas [2018] [Latino] [BRScr] [Un link]

Criaturas nocturnas [2018] [Latino] [BRScr] [Un link]

Anna (Bel Powley) es una joven que se pasó toda su infancia encerrada en el desván, bajo el cuidado de un misterioso hombre al que conocía como papá (Brad Dourif). Un día la sheriff del pueblo, Ellen Cooper (Liv Tyler) libera a Anna y la ayuda a comenzar una nueva vida acogiéndola en su casa, pero las pesadillas de la infancia sobre unos monstruos comeniños llamados "Wildlings" interrumpen la posibilidad de una vida normal de la pequeña Anna.

Criaturas nocturnas [2018] [Latino] [BRScr] [Un link]

Para poder ver los links necesitas estar Registrado .
O.. ya tienes cuenta? Logueate!


Criaturas nocturnas [2018] [Latino] [BRScr] [Un link]

Título original: Wildling
Año: 2018
Duración: 92 min.
País: Estados Unidos Estados Unidos
Dirección: Fritz Böhm
Guion: Fritz Böhm, Florian Eder
Música: Martina Eisenreich, Paul Haslinger
Fotografía: Toby Oliver
Reparto: Bel Powley, Liv Tyler, Brad Dourif, James Legros, Mike Faist, Troy Ruptash, Frank Deal, Charlotte Ubben, Patrick M. Walsh, Bhavesh Patel, Kelly Lamor Wilson, Brian Donahue, Keenan Jolliff, Collin Kelly-Sordelet, Don Hewitt, Julia Rusatsky
Productora: Maven Pictures / Film I Väst / Filmgate Films / ARRI Media Productions / Night Fox Entertainment. Distribuida por IFC
Género: Terror. Fantástico | Adolescencia. Cine independiente USA

Criaturas nocturnas [2018] [Latino] [BRScr] [Un link]

General
Complete name               : Wildling [BRScr][Latino].avi
Format                      : AVI
Format/Info                 : Audio Video Interleave
File size                   : 1.47 GiB
Duration                    : 1 h 32 min
Overall bit rate            : 2 279 kb/s
Writing application         : VirtualDubMod 1.5.10.2 (build 2540/release)
Writing library             : VirtualDubMod build 2540/release

Video
ID                          : 0
Format                      : AVC
Format/Info                 : Advanced Video Codec
Format profile              : [email protected]
Format settings             : CABAC / 2 Ref Frames
Format settings, CABAC      : Yes
Format settings, RefFrames  : 2 frames
Codec ID                    : H264
Duration                    : 1 h 32 min
Bit rate                    : 2 077 kb/s
Width                       : 720 pixels
Height                      : 306 pixels
Display aspect ratio        : 2.35:1
Frame rate                  : 23.976 (24000/1001) FPS
Color space                 : YUV
Chroma subsampling          : 4:2:0
Bit depth                   : 8 bits
Scan type                   : Progressive
Bits/(Pixel*Frame)          : 0.393
Stream size                 : 1.34 GiB (91%)
Writing library             : x264 core
Color range                 : Limited
Color primaries             : BT.601 NTSC
Transfer characteristics    : BT.709
Matrix coefficients         : BT.601

Audio
ID                          : 1
Format                      : MPEG Audio
Format version              : Version 1
Format profile              : Layer 3
Format settings             : Joint stereo / MS Stereo
Mode                        : Joint stereo
Mode extension              : MS Stereo
Codec ID                    : 55
Codec ID/Hint               : MP3
Duration                    : 1 h 32 min
Bit rate mode               : Constant
Bit rate                    : 192 kb/s
Channel(s)                  : 2 channels
Sampling rate               : 48.0 kHz
Compression mode            : Lossy
Stream size                 : 127 MiB (8%)
Alignment                   : Split accross interleaves
Interleave, duration        : 42  ms (1.00 video frame)
Interleave, preload duratio : 500  ms
Writing library             : LAME3.99.5

Criaturas nocturnas [2018] [Latino] [BRScr] [Un link]

Criaturas nocturnas [2018] [Latino] [BRScr] [Un link]

Criaturas nocturnas [2018] [Latino] [BRScr] [Un link]


Un link sin comprimir

Para poder ver los links necesitas estar Registrado .
O.. ya tienes cuenta? Logueate!


Enlaces intercambiables

Para poder ver los links necesitas estar Registrado .
O.. ya tienes cuenta? Logueate!

Para poder ver los links necesitas estar Registrado .
O.. ya tienes cuenta? Logueate!

Si lo que encontraste en este Post te sirvió , no te olvides de agradecérselo al Uploader ;
Tu comentario y agradecimiento es su única recompensa y estimulo para seguir compartiendo.
Estadísticas
Creado 03.09.2018 a las 18:13 hs
Categoría Peliculas audio Latino
  • 0
    Medallas
  • 0
    Favoritos
  • 109
    Visitas
  • 1/10
    LPDLW score
  • 1
    Votantes
  • 10
    Puntos
  • 0
    Seguidores
  • 0
    Recomendado
Comentarios
1
Cargando comentarios espera un momento...

Para poder comentar necesitas ser un usuario registrado , ¡ Registrarme Ahora !. O.. ya tienes usuario? Logueate!
Creado por    EmaMedina
Ver perfil de EmaMedina EmaMedina
Hombre New Full User  Mensaje
263 14 0
Medallas ganadas por este Post
No tiene medallas
Punteadores
Tags
Posts relacionados
Mas Post de     EmaMedina
Términos y condiciones
Privacidad
Report - DMCA
Contacto
LoPeorDeLaWeb  © 2014 - 2018
Carga   0.920    Mls  
Basado en  PHPost 
Diseño de Kmario19
Adaptado por  jor51