Registrate para interactuar con EmaMedina

Superagente canino [2018] [Latino] [HDRip] [Un link]
Peliculas audio Latino

Superagente canino [2018] [Latino] [HDRip] [Un link]

Superagente canino [2018] [Latino] [HDRip] [Un link]

Después de su fallido intento para rescatar a un bebé de panda robado, el oficial canino Max (un solitario y fuerte Rottweiler) deberá trabajar junto a Frank (un agente humano del FBI) e infiltrarse en el siguiente objetivo de los ladrones: un certamen canino en Las Vegas. Los dos agentes se encontrarán inmersos en un mundo perruno con pedicuras, botox, depilaciones brasileñas y bocas antincendios chapadas en oro. Si quieren rescatar al panda deberán dejar a un lado su machismo y aprender a trabajar como compañeros.

Superagente canino [2018] [Latino] [HDRip] [Un link]

Para poder ver los links necesitas estar Registrado .
O.. ya tienes cuenta? Logueate!


Superagente canino [2018] [Latino] [HDRip] [Un link]

Título original: Show Dogs
Año: 2018
Duración: 92 min.
País: Estados Unidos Estados Unidos
Dirección: Raja Gosnell
Guion: Max Botkin, Marc Hyman
Música: Heitor Pereira
Fotografía: David Mackie
Reparto: Will Arnett, Ludacris, Natasha Lyonne, Bern Collaco, Andy Beckwith, Clem So, Delia Sheppard, Cristina Dohmen, Daniel Eghan, Omar Chaparro, Kerry Shale, Atul Sharma, Flaminia Cinque, Madeleine Woolner, Shane Santos, Jemarko Jones, Renée Castle, Juke Hardy, Brian Blu, Lachele Carl, Rusty Meyers, Timothy Skyler Dunigan, Pino Maiello
Productora: Open Road Films / Riverstone Pictures
Género: Comedia. Aventuras | Perros/Lobos. Cine familiar

Superagente canino [2018] [Latino] [HDRip] [Un link]

General
Complete name               : Show Dogs [HDRip][Latino].avi
Format                      : AVI
Format/Info                 : Audio Video Interleave
File size                   : 1.45 GiB
Duration                    : 1 h 30 min
Overall bit rate            : 2 292 kb/s
Writing application         : VirtualDubMod 1.5.10.2 (build 2540/release)
Writing library             : VirtualDubMod build 2540/release

Video
ID                          : 0
Format                      : AVC
Format/Info                 : Advanced Video Codec
Format profile              : [email protected]
Format settings             : CABAC / 2 Ref Frames
Format settings, CABAC      : Yes
Format settings, RefFrames  : 2 frames
Codec ID                    : H264
Duration                    : 1 h 30 min
Bit rate                    : 2 091 kb/s
Width                       : 720 pixels
Height                      : 390 pixels
Display aspect ratio        : 1.85:1
Frame rate                  : 23.976 (24000/1001) FPS
Color space                 : YUV
Chroma subsampling          : 4:2:0
Bit depth                   : 8 bits
Scan type                   : Progressive
Bits/(Pixel*Frame)          : 0.311
Stream size                 : 1.33 GiB (91%)
Writing library             : x264 core
Color range                 : Limited
Color primaries             : BT.601 NTSC
Transfer characteristics    : BT.709
Matrix coefficients         : BT.601

Audio
ID                          : 1
Format                      : AC-3
Format/Info                 : Audio Coding 3
Format settings, Endianness : Big
Codec ID                    : 2000
Duration                    : 1 h 30 min
Bit rate mode               : Constant
Bit rate                    : 192 kb/s
Channel(s)                  : 2 channels
Channel positions           : Front: L R
Sampling rate               : 48.0 kHz
Frame rate                  : 31.250 FPS (1536 SPF)
Bit depth                   : 16 bits
Compression mode            : Lossy
Stream size                 : 125 MiB (8%)
Alignment                   : Split accross interleaves
Interleave, duration        : 42  ms (1.00 video frame)
Interleave, preload duratio : 500  ms
Service kind                : Complete Main

Superagente canino [2018] [Latino] [HDRip] [Un link]

Superagente canino [2018] [Latino] [HDRip] [Un link]

Superagente canino [2018] [Latino] [HDRip] [Un link]

Un link sin comprimir

Para poder ver los links necesitas estar Registrado .
O.. ya tienes cuenta? Logueate!


Enlaces intercambiables

Para poder ver los links necesitas estar Registrado .
O.. ya tienes cuenta? Logueate!

Para poder ver los links necesitas estar Registrado .
O.. ya tienes cuenta? Logueate!

Si lo que encontraste en este Post te sirvió , no te olvides de agradecérselo al Uploader ;
Tu comentario y agradecimiento es su única recompensa y estimulo para seguir compartiendo.
Estadísticas
Creado 03.09.2018 a las 17:44 hs
Categoría Peliculas audio Latino
  • 0
    Medallas
  • 0
    Favoritos
  • 53
    Visitas
  • 2/10
    LPDLW score
  • 2
    Votantes
  • 20
    Puntos
  • 0
    Seguidores
  • 0
    Recomendado
Comentarios
3
Cargando comentarios espera un momento...

Para poder comentar necesitas ser un usuario registrado , ¡ Registrarme Ahora !. O.. ya tienes usuario? Logueate!
Creado por    EmaMedina
Ver perfil de EmaMedina EmaMedina
Hombre New Full User  Mensaje
263 14 0
Medallas ganadas por este Post
No tiene medallas
Punteadores
Tags
Posts relacionados
Mas Post de     EmaMedina
Términos y condiciones
Privacidad
Report - DMCA
Contacto
LoPeorDeLaWeb  © 2014 - 2018
Carga   1.080    Mls  
Basado en  PHPost 
Diseño de Kmario19
Adaptado por  jor51