Registrate para interactuar con EmaMedina

Lino [2017] [Latino] [BRScr] [Un link]
Peliculas audio Latino

Lino [2017] [Latino] [BRScr] [Un link]

Lino [2017] [Latino] [BRScr] [Un link]

Lino, un animador de fiestas azarado, no aguanta más trabajar con una ridícula fantasía de gato gigante. Para cambiar su vida, él contrata a un hechicero, pero la magia termina siendo un tiro en el pie y él se transforma justamente en un felino gigante.

Lino [2017] [Latino] [BRScr] [Un link]

Para poder ver los links necesitas estar Registrado .
O.. ya tienes cuenta? Logueate!


Lino [2017] [Latino] [BRScr] [Un link]

Título original: Lino: O Filme
Año: 2017
País: Brasil Brasil
Dirección: Rafael Ribas
Música: Paulo Lebrão, Paulo Lebrão
Fotografía: Animation
Reparto: Animation, Selton Mello, Paola Oliveira, Dira Paes
Productora: Start Desenhos Animados
Género: Animación. Comedia

Lino [2017] [Latino] [BRScr] [Un link]

General
Complete name               : Lino [BRScr][Latino].avi
Format                      : AVI
Format/Info                 : Audio Video Interleave
Format profile              : OpenDML
File size                   : 1.49 GiB
Duration                    : 1 h 32 min
Overall bit rate            : 2 312 kb/s
Writing application         : Lavf53.32.100
Original source form/Name   : Lino

Video
ID                          : 0
Format                      : AVC
Format/Info                 : Advanced Video Codec
Format profile              : [email protected]
Format settings             : CABAC / 2 Ref Frames
Format settings, CABAC      : Yes
Format settings, RefFrames  : 2 frames
Codec ID                    : H264
Duration                    : 1 h 32 min
Bit rate                    : 2 106 kb/s
Width                       : 720 pixels
Height                      : 404 pixels
Display aspect ratio        : 16:9
Frame rate                  : 23.976 (24000/1001) FPS
Color space                 : YUV
Chroma subsampling          : 4:2:0
Bit depth                   : 8 bits
Scan type                   : Progressive
Bits/(Pixel*Frame)          : 0.302
Stream size                 : 1.36 GiB (91%)
Writing library             : x264 core
Color range                 : Limited
Color primaries             : BT.601 NTSC
Transfer characteristics    : BT.709
Matrix coefficients         : BT.601

Audio
ID                          : 1
Format                      : MPEG Audio
Format version              : Version 1
Format profile              : Layer 3
Format settings             : Joint stereo / MS Stereo
Mode                        : Joint stereo
Mode extension              : MS Stereo
Codec ID                    : 55
Codec ID/Hint               : MP3
Duration                    : 1 h 32 min
Bit rate mode               : Constant
Bit rate                    : 192 kb/s
Channel(s)                  : 2 channels
Sampling rate               : 48.0 kHz
Compression mode            : Lossy
Stream size                 : 127 MiB (8%)
Alignment                   : Aligned on interleaves
Interleave, duration        : 24  ms (0.58 video frame)
Writing library             : LAME3.99.5

Lino [2017] [Latino] [BRScr] [Un link]

Lino [2017] [Latino] [BRScr] [Un link]

Lino [2017] [Latino] [BRScr] [Un link]

Un link sin comprimir

Para poder ver los links necesitas estar Registrado .
O.. ya tienes cuenta? Logueate!


Enlaces intercambiables

Para poder ver los links necesitas estar Registrado .
O.. ya tienes cuenta? Logueate!

Para poder ver los links necesitas estar Registrado .
O.. ya tienes cuenta? Logueate!

Si lo que encontraste en este Post te sirvió , no te olvides de agradecérselo al Uploader ;
Tu comentario y agradecimiento es su única recompensa y estimulo para seguir compartiendo.
Estadísticas
Creado 03.09.2018 a las 17:27 hs
Categoría Peliculas audio Latino
  • 0
    Medallas
  • 0
    Favoritos
  • 67
    Visitas
  • 1/10
    LPDLW score
  • 1
    Votantes
  • 10
    Puntos
  • 0
    Seguidores
  • 0
    Recomendado
Comentarios
1
Cargando comentarios espera un momento...

Para poder comentar necesitas ser un usuario registrado , ¡ Registrarme Ahora !. O.. ya tienes usuario? Logueate!
Creado por    EmaMedina
Ver perfil de EmaMedina EmaMedina
Hombre New Full User  Mensaje
263 14 0
Medallas ganadas por este Post
No tiene medallas
Punteadores
Tags
Posts relacionados
Mas Post de     EmaMedina
Términos y condiciones
Privacidad
Report - DMCA
Contacto
LoPeorDeLaWeb  © 2014 - 2018
Carga   0.974    Mls  
Basado en  PHPost 
Diseño de Kmario19
Adaptado por  jor51