Registrate para interactuar con EmaMedina

Ghost Stories [2017] [Latino] [BRScr] [Un link]
Peliculas audio Latino

Ghost Stories [2017] [Latino] [BRScr] [Un link]

Ghost Stories [2017] [Latino] [BRScr] [Un link]

El escéptico profesor Phillip Goodman se embarca en un viaje hacia lo terrorífico tras encontrarse un archivo con detalles de tres casos inexplicables de apariciones.

Ghost Stories [2017] [Latino] [BRScr] [Un link]

Para poder ver los links necesitas estar Registrado .
O.. ya tienes cuenta? Logueate!


Ghost Stories [2017] [Latino] [BRScr] [Un link]

Título original: Ghost Stories
Año: 2017
Duración: 98 min.
País: Reino Unido Reino Unido
Dirección: Jeremy Dyson, Andy Nyman
Guion: Jeremy Dyson, Andy Nyman
Música: Haim Frank Ilfman
Fotografía: Ole Bratt Birkeland
Reparto: Martin Freeman, Alex Lawther, Jill Halfpenny, Andy Nyman, Paul Whitehouse, Nicholas Burns, Daniel Hill, Kobna Holdbrook-Smith, Jake Davies, Ryan Oliva, Derren Brown, Samuel Bottomley, Lesley Harcourt, Oliver Woollford, Maggie McCarthy, Paul Warren, Emily Carding, Amy Doyle, Ramzan Miah, Louise Atkins, Billy Sneddon, Callum Goulden, Christine Dalby, Benji Ming, Deborah Wastell, Elaine Dyson, Joe Osborne, Maria Major, Macie Allen, Richard Waring
Productora: Warp Films / Altitude Film Entertainment / Catalyst Global Media / Lionsgate. Distribuida por IFC Midnight [USA]
Género: Terror. Drama

Ghost Stories [2017] [Latino] [BRScr] [Un link]

General
Complete name               : Ghost Stories [BRScr][Latino].avi
Format                      : AVI
Format/Info                 : Audio Video Interleave
Format profile              : OpenDML
File size                   : 1.45 GiB
Duration                    : 1 h 31 min
Overall bit rate            : 2 279 kb/s
Writing application         : Lavf53.32.100
Original source form/Name   : Ghost.Stories
IsTruncated                 : Yes

Video
ID                          : 0
Format                      : AVC
Format/Info                 : Advanced Video Codec
Format profile              : [email protected]
Format settings             : CABAC / 2 Ref Frames
Format settings, CABAC      : Yes
Format settings, RefFrames  : 2 frames
Codec ID                    : H264
Duration                    : 1 h 31 min
Bit rate                    : 2 072 kb/s
Width                       : 720 pixels
Height                      : 308 pixels
Display aspect ratio        : 2.35:1
Frame rate                  : 23.976 (24000/1001) FPS
Color space                 : YUV
Chroma subsampling          : 4:2:0
Bit depth                   : 8 bits
Scan type                   : Progressive
Bits/(Pixel*Frame)          : 0.390
Stream size                 : 1.32 GiB (91%)
Writing library             : x264 core
Color range                 : Limited
Color primaries             : BT.601 NTSC
Transfer characteristics    : BT.709
Matrix coefficients         : BT.601

Audio
ID                          : 1
Format                      : MPEG Audio
Format version              : Version 1
Format profile              : Layer 3
Format settings             : Joint stereo / MS Stereo
Mode                        : Joint stereo
Mode extension              : MS Stereo
Codec ID                    : 55
Codec ID/Hint               : MP3
Duration                    : 1 h 31 min
Bit rate mode               : Constant
Bit rate                    : 192 kb/s
Channel(s)                  : 2 channels
Sampling rate               : 48.0 kHz
Compression mode            : Lossy
Stream size                 : 125 MiB (8%)
Alignment                   : Aligned on interleaves
Interleave, duration        : 24  ms (0.58 video frame)
Writing library             : LAME3.99.5

Ghost Stories [2017] [Latino] [BRScr] [Un link]

Ghost Stories [2017] [Latino] [BRScr] [Un link]

Ghost Stories [2017] [Latino] [BRScr] [Un link]

Un link sin comprimir

Para poder ver los links necesitas estar Registrado .
O.. ya tienes cuenta? Logueate!


Enlaces intercambiables

Para poder ver los links necesitas estar Registrado .
O.. ya tienes cuenta? Logueate!

Para poder ver los links necesitas estar Registrado .
O.. ya tienes cuenta? Logueate!

Si lo que encontraste en este Post te sirvió , no te olvides de agradecérselo al Uploader ;
Tu comentario y agradecimiento es su única recompensa y estimulo para seguir compartiendo.
Estadísticas
Creado 03.09.2018 a las 17:08 hs
Categoría Peliculas audio Latino
  • 1
    Medallas
  • 0
    Favoritos
  • 63
    Visitas
  • 0/10
    LPDLW score
  • 0
    Votantes
  • 0
    Puntos
  • 0
    Seguidores
  • 0
    Recomendado
Comentarios
2
Cargando comentarios espera un momento...

Para poder comentar necesitas ser un usuario registrado , ¡ Registrarme Ahora !. O.. ya tienes usuario? Logueate!
Creado por    EmaMedina
Ver perfil de EmaMedina EmaMedina
Hombre New Full User  Mensaje
260 14 0
Medallas ganadas por este Post
1
Tags
Posts relacionados
Mas Post de     EmaMedina
Términos y condiciones
Privacidad
Report - DMCA
Contacto
LoPeorDeLaWeb  © 2014 - 2018
Carga   4.685    Mls  
Basado en  PHPost 
Diseño de Kmario19
Adaptado por  jor51