Registrate para interactuar con EmaMedina

Christopher Robin [2018] [Latino] [Cam] [Un link]
Peliculas audio Latino

Christopher Robin [2018] [Latino] [Cam] [Un link]

Christopher Robin [2018] [Latino] [Cam] [Un link]

En esta nueva aventura de acción real, el niño que se embarcó en innumerables aventuras en el bosque de los Cien Acres con su banda de animales de peluche, ha crecido y? ha perdido el rumbo. Ahora les toca a sus amigos de la infancia aventurarse en nuestro mundo y ayudar a Christopher Robin a recordar al niño cariñoso y juguetón que aún tiene dentro.

Christopher Robin [2018] [Latino] [Cam] [Un link]

Para poder ver los links necesitas estar Registrado .
O.. ya tienes cuenta? Logueate!


Christopher Robin [2018] [Latino] [Cam] [Un link]

Título original: Christopher Robin
Año: 2018
Duración: 104 min.
País: Estados Unidos Estados Unidos
Dirección: Marc Forster
Guion: Thomas McCarthy, Alex Ross Perry, Allison Schroeder (Personaje: A.A. Milne)
Música: Klaus Badelt
Fotografía: Animation, Matthias Koenigswieser
Reparto: Animation, Ewan McGregor, Hayley Atwell, Mark Gatiss, Adrian Scarborough, Roger Ashton-Griffiths, Paul Chahidi, Gintare Beinoraviciute, Bern Collaco, Bronte Carmichael, Evie Wray, Roy Beck, Vivien Bridson, Kumud Pant, Raj Ghatak, Gino Picciano, Tim Ingall, Mark Sayer-Wade, Karol Steele, Jackson Kai, Rahji Shrinarine, Lee Asquith-Coe, Orton O'Brien, Sharron Spice, Jeremy Oliver, Dean Middhat, Elsa Minell Solak, Abbey Denne, Errol Francis II, Richard Price
Productora: Walt Disney Pictures
Género: Aventuras. Comedia. Fantástico. Drama. Animación | Cine familiar. Amistad. Familia

Christopher Robin [2018] [Latino] [Cam] [Un link]

General
Complete name               : Christopher Robin [Cam][Latino].avi
Format                      : AVI
Format/Info                 : Audio Video Interleave
File size                   : 1.45 GiB
Duration                    : 1 h 30 min
Overall bit rate            : 2 306 kb/s
Writing application         : VirtualDubMod 1.5.10.2 (build 2540/release)
Writing library             : VirtualDubMod build 2540/release

Video
ID                          : 0
Format                      : AVC
Format/Info                 : Advanced Video Codec
Format profile              : [email protected]
Format settings             : CABAC / 2 Ref Frames
Format settings, CABAC      : Yes
Format settings, RefFrames  : 2 frames
Codec ID                    : H264
Duration                    : 1 h 30 min
Bit rate                    : 2 104 kb/s
Width                       : 720 pixels
Height                      : 368 pixels
Display aspect ratio        : 1.957
Frame rate                  : 23.976 (24000/1001) FPS
Color space                 : YUV
Chroma subsampling          : 4:2:0
Bit depth                   : 8 bits
Scan type                   : Progressive
Bits/(Pixel*Frame)          : 0.331
Stream size                 : 1.33 GiB (91%)
Writing library             : x264 core
Color range                 : Limited
Color primaries             : BT.601 NTSC
Transfer characteristics    : BT.709
Matrix coefficients         : BT.601

Audio
ID                          : 1
Format                      : MPEG Audio
Format version              : Version 1
Format profile              : Layer 3
Format settings             : Joint stereo / MS Stereo
Mode                        : Joint stereo
Mode extension              : MS Stereo
Codec ID                    : 55
Codec ID/Hint               : MP3
Duration                    : 1 h 30 min
Bit rate mode               : Constant
Bit rate                    : 192 kb/s
Channel(s)                  : 2 channels
Sampling rate               : 48.0 kHz
Compression mode            : Lossy
Stream size                 : 124 MiB (8%)
Alignment                   : Split accross interleaves
Interleave, duration        : 42  ms (1.00 video frame)
Interleave, preload duratio : 500  ms

Christopher Robin [2018] [Latino] [Cam] [Un link]

Christopher Robin [2018] [Latino] [Cam] [Un link]

Christopher Robin [2018] [Latino] [Cam] [Un link]

Un link sin comprimir

Para poder ver los links necesitas estar Registrado .
O.. ya tienes cuenta? Logueate!


Enlaces intercambiables

Para poder ver los links necesitas estar Registrado .
O.. ya tienes cuenta? Logueate!

Para poder ver los links necesitas estar Registrado .
O.. ya tienes cuenta? Logueate!

Si lo que encontraste en este Post te sirvió , no te olvides de agradecérselo al Uploader ;
Tu comentario y agradecimiento es su única recompensa y estimulo para seguir compartiendo.
Estadísticas
Creado 03.09.2018 a las 16:39 hs
Categoría Peliculas audio Latino
  • 0
    Medallas
  • 0
    Favoritos
  • 120
    Visitas
  • 1/10
    LPDLW score
  • 1
    Votantes
  • 10
    Puntos
  • 0
    Seguidores
  • 0
    Recomendado
Comentarios
0
Cargando comentarios espera un momento...

Para poder comentar necesitas ser un usuario registrado , ¡ Registrarme Ahora !. O.. ya tienes usuario? Logueate!
Creado por    EmaMedina
Ver perfil de EmaMedina EmaMedina
Hombre New Full User  Mensaje
264 14 1
Medallas ganadas por este Post
No tiene medallas
Punteadores
Tags
Posts relacionados
Mas Post de     EmaMedina
Términos y condiciones
Privacidad
Report - DMCA
Contacto
LoPeorDeLaWeb  © 2014 - 2018
Carga   1.105    Mls  
Basado en  PHPost 
Diseño de Kmario19
Adaptado por  jor51