Registrate para interactuar con EmaMedina

Mentes poderosas [2018] [Latino] [TS] [Un link]
Peliculas audio Latino

Mentes poderosas [2018] [Latino] [TS] [Un link]

Mentes poderosas [2018] [Latino] [TS] [Un link]

Después de que una enfermedad matase al 98% de los niños y jóvenes de los Estados Unidos, el 2% que consiguió sobrevivir ha desarrollado superpoderes, pero se los ha encerrado en campos de internamiento al ser declarados una amenaza. Una de esas niñas de 16 años, Ruby, consigue escapar de su campamento y se une a un grupo de adolescentes que huyen de las fuerzas del gobierno.

Mentes poderosas [2018] [Latino] [TS] [Un link]

Para poder ver los links necesitas estar Registrado .
O.. ya tienes cuenta? Logueate!


Mentes poderosas [2018] [Latino] [TS] [Un link]

Título original: The Darkest Minds
Año: 2018
Duración: 105 min.
País: Estados Unidos Estados Unidos
Dirección: Jennifer Yuh
Guion: Chad Hodge (Novela: Alexandra Bracken)
Música: Benjamin Wallfisch
Fotografía: Kramer Morgenthau
Reparto: Amandla Stenberg, Mandy Moore, Gwendoline Christie, Harris Dickinson, Miya Cech, Skylan Brooks, Mark O'Brien, Wallace Langham, Golden Brooks, Patrick Gibson, Catherine Dyer, Peyton Wich, Sammi Rotibi, Deja Dee, Lidya Jewett, Connor Murdock, Kaleigh Rivera, Allie McCulloch, Charles Green, Kassidy Slaughter, Audrey Hope, Carson Holmes, Jonnah-Blaine Bowling, Blake Bertrand, McCarrie McCausland, Curtis Gammage
Productora: 20th Century Fox / 21 Laps Entertainment
Género: Ciencia ficción. Romance. Fantástico | Distopía. Young Adult. Adolescencia. Pandemias

Mentes poderosas [2018] [Latino] [TS] [Un link]

General
Complete name               : The Darkest Minds [TS][Latino].avi
Format                      : AVI
Format/Info                 : Audio Video Interleave
File size                   : 1.57 GiB
Duration                    : 1 h 37 min
Overall bit rate            : 2 301 kb/s
Writing application         : VirtualDubMod 1.5.10.2 (build 2540/release)
Writing library             : VirtualDubMod build 2540/release

Video
ID                          : 0
Format                      : AVC
Format/Info                 : Advanced Video Codec
Format profile              : [email protected]
Format settings             : CABAC / 2 Ref Frames
Format settings, CABAC      : Yes
Format settings, RefFrames  : 2 frames
Codec ID                    : H264
Duration                    : 1 h 37 min
Bit rate                    : 2 099 kb/s
Width                       : 720 pixels
Height                      : 298 pixels
Display aspect ratio        : 2.40:1
Frame rate                  : 23.976 (24000/1001) FPS
Color space                 : YUV
Chroma subsampling          : 4:2:0
Bit depth                   : 8 bits
Scan type                   : Progressive
Bits/(Pixel*Frame)          : 0.408
Stream size                 : 1.43 GiB (91%)
Writing library             : x264 core
Color range                 : Limited
Color primaries             : BT.601 NTSC
Transfer characteristics    : BT.709
Matrix coefficients         : BT.601

Audio
ID                          : 1
Format                      : MPEG Audio
Format version              : Version 1
Format profile              : Layer 3
Format settings             : Joint stereo
Mode                        : Joint stereo
Codec ID                    : 55
Codec ID/Hint               : MP3
Duration                    : 1 h 37 min
Bit rate mode               : Constant
Bit rate                    : 192 kb/s
Channel(s)                  : 2 channels
Sampling rate               : 48.0 kHz
Compression mode            : Lossy
Stream size                 : 134 MiB (8%)
Alignment                   : Split accross interleaves
Interleave, duration        : 42  ms (1.00 video frame)
Interleave, preload duratio : 500  ms
Writing library             : LAME3.99.5

Mentes poderosas [2018] [Latino] [TS] [Un link]

Mentes poderosas [2018] [Latino] [TS] [Un link]

Mentes poderosas [2018] [Latino] [TS] [Un link]

Un link sin comprimir

Para poder ver los links necesitas estar Registrado .
O.. ya tienes cuenta? Logueate!


Enlaces intercambiables

Para poder ver los links necesitas estar Registrado .
O.. ya tienes cuenta? Logueate!

Para poder ver los links necesitas estar Registrado .
O.. ya tienes cuenta? Logueate!

Si lo que encontraste en este Post te sirvió , no te olvides de agradecérselo al Uploader ;
Tu comentario y agradecimiento es su única recompensa y estimulo para seguir compartiendo.
Estadísticas
Creado 03.09.2018 a las 00:55 hs
Categoría Peliculas audio Latino
  • 0
    Medallas
  • 0
    Favoritos
  • 112
    Visitas
  • 1/10
    LPDLW score
  • 1
    Votantes
  • 10
    Puntos
  • 0
    Seguidores
  • 0
    Recomendado
Comentarios
0
Cargando comentarios espera un momento...

Para poder comentar necesitas ser un usuario registrado , ¡ Registrarme Ahora !. O.. ya tienes usuario? Logueate!
Creado por    EmaMedina
Ver perfil de EmaMedina EmaMedina
Hombre New Full User  Mensaje
264 14 1
Medallas ganadas por este Post
No tiene medallas
Punteadores
Tags
Posts relacionados
Mas Post de     EmaMedina
Términos y condiciones
Privacidad
Report - DMCA
Contacto
LoPeorDeLaWeb  © 2014 - 2018
Carga   3.445    Mls  
Basado en  PHPost 
Diseño de Kmario19
Adaptado por  jor51