Registrate para interactuar con EmaMedina

The Tale [2018] [Latino] [HDRip] [Un link]
Peliculas audio Latino

The Tale [2018] [Latino] [HDRip] [Un link]

The Tale [2018] [Latino] [HDRip] [Un link]

Una exploración de la memoria de una mujer cuando ésta se ve obligada a revaluar su primera relación sexual y sus historias basadas en el autoengaño.

The Tale [2018] [Latino] [HDRip] [Un link]

Para poder ver los links necesitas estar Registrado .
O.. ya tienes cuenta? Logueate!


The Tale [2018] [Latino] [HDRip] [Un link]

Título original: The Tale
Año: 2018
Duración: 114 min.
País: Estados Unidos Estados Unidos
Dirección: Jennifer Fox
Guion: Jennifer Fox
Música: Ariel Marx
Fotografía: Ivan Strasburg
Reparto: Laura Dern, Isabelle Nelisse, Jason Ritter, Elizabeth Debicki, Ellen Burstyn, Common, Jaqueline Fleming, Matthew Rauch, Rebecca Chulew, Thom Bishops, Scott Takeda, Gretchen Koerner, Isabelle Amara, Grant James, Juli Erickson, Rebecca Gamble, Frances Conroy, John Heard, Laura Allen
Productora: A Luminous Mind Production / Blackbird Films / ONE TWO Films / WeatherVane Productions / Gamechanger Films. Distribuida por HBO
Género: Drama | Cine independiente USA

The Tale [2018] [Latino] [HDRip] [Un link]

General
Complete name               : The Tale [HDRip][Latino].avi
Format                      : AVI
Format/Info                 : Audio Video Interleave
File size                   : 1.83 GiB
Duration                    : 1 h 54 min
Overall bit rate            : 2 285 kb/s
Writing application         : VirtualDubMod 1.5.10.2 (build 2540/release)
Writing library             : VirtualDubMod build 2540/release

Video
ID                          : 0
Format                      : AVC
Format/Info                 : Advanced Video Codec
Format profile              : [email protected]
Format settings             : CABAC / 2 Ref Frames
Format settings, CABAC      : Yes
Format settings, RefFrames  : 2 frames
Codec ID                    : H264
Duration                    : 1 h 54 min
Bit rate                    : 2 083 kb/s
Width                       : 720 pixels
Height                      : 406 pixels
Display aspect ratio        : 16:9
Frame rate                  : 23.976 (24000/1001) FPS
Color space                 : YUV
Chroma subsampling          : 4:2:0
Bit depth                   : 8 bits
Scan type                   : Progressive
Bits/(Pixel*Frame)          : 0.297
Stream size                 : 1.67 GiB (91%)
Writing library             : x264 core
Color range                 : Limited
Color primaries             : BT.601 NTSC
Transfer characteristics    : BT.709
Matrix coefficients         : BT.601

Audio
ID                          : 1
Format                      : AC-3
Format/Info                 : Audio Coding 3
Format settings, Endianness : Big
Codec ID                    : 2000
Duration                    : 1 h 54 min
Bit rate mode               : Constant
Bit rate                    : 192 kb/s
Channel(s)                  : 2 channels
Channel positions           : Front: L R
Sampling rate               : 48.0 kHz
Frame rate                  : 31.250 FPS (1536 SPF)
Bit depth                   : 16 bits
Compression mode            : Lossy
Stream size                 : 158 MiB (8%)
Alignment                   : Split accross interleaves
Interleave, duration        : 42  ms (1.00 video frame)
Interleave, preload duratio : 500  ms
Service kind                : Complete Main

The Tale [2018] [Latino] [HDRip] [Un link]

The Tale [2018] [Latino] [HDRip] [Un link]

The Tale [2018] [Latino] [HDRip] [Un link]

Un link sin comprimir

Para poder ver los links necesitas estar Registrado .
O.. ya tienes cuenta? Logueate!


Enlaces intercambiables

Para poder ver los links necesitas estar Registrado .
O.. ya tienes cuenta? Logueate!

Para poder ver los links necesitas estar Registrado .
O.. ya tienes cuenta? Logueate!

Si lo que encontraste en este Post te sirvió , no te olvides de agradecérselo al Uploader ;
Tu comentario y agradecimiento es su única recompensa y estimulo para seguir compartiendo.
Estadísticas
Creado 03.09.2018 a las 00:06 hs
Categoría Peliculas audio Latino
  • 0
    Medallas
  • 0
    Favoritos
  • 76
    Visitas
  • 2/10
    LPDLW score
  • 2
    Votantes
  • 20
    Puntos
  • 0
    Seguidores
  • 0
    Recomendado
Comentarios
2
Cargando comentarios espera un momento...

Para poder comentar necesitas ser un usuario registrado , ¡ Registrarme Ahora !. O.. ya tienes usuario? Logueate!
Creado por    EmaMedina
Ver perfil de EmaMedina EmaMedina
Hombre New Full User  Mensaje
264 14 1
Medallas ganadas por este Post
No tiene medallas
Punteadores
Tags
Posts relacionados
Mas Post de     EmaMedina
Términos y condiciones
Privacidad
Report - DMCA
Contacto
LoPeorDeLaWeb  © 2014 - 2018
Carga   2.150    Mls  
Basado en  PHPost 
Diseño de Kmario19
Adaptado por  jor51