Registrate para interactuar con EmaMedina

Más sabe el diablo por viejo [2018] [Latino] [TS] [Un link]
Peliculas audio Latino

Más sabe el diablo por viejo [2018] [Latino] [TS] [Un link]

Más sabe el diablo por viejo [2018] [Latino] [TS] [Un link]

Teo, un joven actor arruinado, simula ser un anciano para irse a vivir a la casa de retiro del actor en lo que encuentra la manera de resolver sus problemas y salir adelante en su carrera. Durante su estancia renueva el entusiasmo por vivir de los residentes mientras se enamora de Dafne, una joven pasante de medicina que realiza su servicio social en dicho lugar. Su paso por esta casa le dará a Teo grandes lecciones actorales y aún mayores lecciones de vida.

Más sabe el diablo por viejo [2018] [Latino] [TS] [Un link]

Para poder ver los links necesitas estar Registrado .
O.. ya tienes cuenta? Logueate!


Más sabe el diablo por viejo [2018] [Latino] [TS] [Un link]

Título original: Más sabe el diablo por viejoaka
Año: 2018
Duración: 100 min.
País: México México
Dirección: José Bojorquez
Guion: José Bojorquez, Alfredo Felix-Diaz (Historia: Ty Granoroli, Brad Hall)
Música: Benjamin Shwartz
Fotografía: Chris Chomyn
Reparto: Osvaldo Benavides, Sandra Echeverría, Ignacio López Tarso, Isela Vega, Lorena Velázquez, Martín Altomaro, Arturo Barba, Tina Romero, Tara Parra, Roger Cudney, Patricio Castillo, Lupita Sandoval, Juan Luis Orendain, Alejandro de la Peña, Ricardo de Pascual Jr., Patricia Eguía, Francisco Walter, Vanessa Ciangherotti, Tiaré Scanda, Laura de Ita, Sandra Quiroz, Rodrigo Abed
Productora: Coproducción México-Estados Unidos; Traziende Films / La Victoria Films
Género: Comedia. Romance | Comedia romántica. Vejez. Cine dentro del cine

Más sabe el diablo por viejo [2018] [Latino] [TS] [Un link]

General
Complete name               : Mas Sabe El Diablo Por Viejo [TS][Latino].avi
Format                      : AVI
Format/Info                 : Audio Video Interleave
Format profile              : OpenDML
File size                   : 1.77 GiB
Duration                    : 1 h 50 min
Overall bit rate            : 2 303 kb/s
Writing application         : Lavf53.32.100
Original source form/Name   : Mas.Sabe.El.Diablo.Por.Viejo

Video
ID                          : 0
Format                      : AVC
Format/Info                 : Advanced Video Codec
Format profile              : [email protected]
Format settings             : CABAC / 2 Ref Frames
Format settings, CABAC      : Yes
Format settings, RefFrames  : 2 frames
Codec ID                    : H264
Duration                    : 1 h 50 min
Bit rate                    : 2 098 kb/s
Width                       : 720 pixels
Height                      : 402 pixels
Display aspect ratio        : 16:9
Frame rate                  : 23.976 (24000/1001) FPS
Color space                 : YUV
Chroma subsampling          : 4:2:0
Bit depth                   : 8 bits
Scan type                   : Progressive
Bits/(Pixel*Frame)          : 0.302
Stream size                 : 1.61 GiB (91%)
Writing library             : x264 core
Color range                 : Limited
Color primaries             : BT.601 NTSC
Transfer characteristics    : BT.709
Matrix coefficients         : BT.601

Audio
ID                          : 1
Format                      : MPEG Audio
Format version              : Version 1
Format profile              : Layer 3
Format settings             : Joint stereo / MS Stereo
Mode                        : Joint stereo
Mode extension              : MS Stereo
Codec ID                    : 55
Codec ID/Hint               : MP3
Duration                    : 1 h 50 min
Bit rate mode               : Constant
Bit rate                    : 192 kb/s
Channel(s)                  : 2 channels
Sampling rate               : 48.0 kHz
Compression mode            : Lossy
Stream size                 : 151 MiB (8%)
Alignment                   : Aligned on interleaves
Interleave, duration        : 24  ms (0.58 video frame)

Más sabe el diablo por viejo [2018] [Latino] [TS] [Un link]

Más sabe el diablo por viejo [2018] [Latino] [TS] [Un link]

Más sabe el diablo por viejo [2018] [Latino] [TS] [Un link]


Un link sin comprimir

Para poder ver los links necesitas estar Registrado .
O.. ya tienes cuenta? Logueate!


Enlaces intercambiables

Para poder ver los links necesitas estar Registrado .
O.. ya tienes cuenta? Logueate!

Para poder ver los links necesitas estar Registrado .
O.. ya tienes cuenta? Logueate!

Si lo que encontraste en este Post te sirvió , no te olvides de agradecérselo al Uploader ;
Tu comentario y agradecimiento es su única recompensa y estimulo para seguir compartiendo.
Estadísticas
Creado 02.09.2018 a las 23:47 hs
Categoría Peliculas audio Latino
  • 0
    Medallas
  • 0
    Favoritos
  • 100
    Visitas
  • 3/10
    LPDLW score
  • 2
    Votantes
  • 30
    Puntos
  • 0
    Seguidores
  • 0
    Recomendado
Comentarios
1
Cargando comentarios espera un momento...

Para poder comentar necesitas ser un usuario registrado , ¡ Registrarme Ahora !. O.. ya tienes usuario? Logueate!
Creado por    EmaMedina
Ver perfil de EmaMedina EmaMedina
Hombre New Full User  Mensaje
264 14 1
Medallas ganadas por este Post
No tiene medallas
Punteadores
Tags
Posts relacionados
Mas Post de     EmaMedina
Términos y condiciones
Privacidad
Report - DMCA
Contacto
LoPeorDeLaWeb  © 2014 - 2018
Carga   1.035    Mls  
Basado en  PHPost 
Diseño de Kmario19
Adaptado por  jor51